Механика сердца / Jack and the Cuckoo-Clock Heart / Jack et la mécanique du coeur (Стефан Берла, Матиас Мальзьё / Stéphane Berla, Mathias Malzieu) [2013, мультфильм, мюзикл, фэнтези, BDRip] MVO (AlexFilm) + Eng + Sub

 
Автор Сообщение

Russian Mafia ®

Пол:

Стаж: 1 год 8 месяцев

Сообщений: 4252



Награды: 10 (Подробнее)

Mega Seeder 5 (Количество: 1) Top Releaser 2 (Количество: 1) Mega Seeder 4 (Количество: 1)
Торрент-статистика

Создавать темы 28-Мар-2016 19:05

[Цитировать]

Механика сердца / Jack and the Cuckoo-Clock Heart / Jack et la mécanique du coeur- Страна: Франция, Бельгия
Жанр: мультфильм, мюзикл, фэнтези, драма, мелодрама, приключения
Год выпуска: 2013
Продолжительность: 01:32:32
Перевод: Профессиональный (многоголосый, закадровый) - AlexFilm
Русские субтитры: Есть-Режиссер: Стефан Берла, Матиас Мальзьё / Stéphane Berla, Mathias Malzieu-Роли озвучивали: Матиас Мальзьё (Jack, озвучка), Оливия Руис (Miss Acacia, озвучка), Гран Кор Маляд (Joe, озвучка), Жан Рошфор (Méliès, озвучка), Росси де Пальма (Luna, озвучка), Babet (Anna, озвучка), Мари Винсент (Madeleine #1, озвучка), Эмили Луазо (Madeleine #2, озвучка), Артур Х. (Arthur, озвучка), Дани (Brigitte Helm, озвучка), Ален Башунг (Jack l'éventreur, озвучка), Кали (L'homme qui pleure, озвучка)-Описание: Джек родился в Эдинбурге, в «самый холодный день на свете», и сердце его мгновенно оледенело. Брошенного матерью мальчика усыновляет акушерка-волшебница, Докторша Мадлен. Она вставляет ему в грудь часы, которые помогают сердцу биться, но влюбляться Джеку нельзя - такого пылкого чувства хрупкая сердечная механика не выдержит. Однако подросший Джек невольно нарушает запрет, увидев на прогулке маленькую уличную певицу...-Рейтинг:

MPAA: - Рекомендуется присутствие родителей-Бюджет: $33 746 302
Сборы в мире: $3 445 000
Мировая премьера: 17 ноября 2013-Релиз: -Семпл-Качество: BDRip [Jack et la mécanique du coeur.2013.BDRemux 1080p.mkv]
Формат: AVI
Видео: 720x400 (1.80:1), 24.000 fps, XviD build 64 ~1861 kbps avg, 0.27 bit/pixel
Аудио: 48 kHz, AC3 Dolby Digital, 3/2 (L,C,R,l,r) + LFE ch, ~384 kbps
Аудио 2: 48 kHz, AC3 Dolby Digital, 3/2 (L,C,R,l,r) + LFE ch, ~384 kbps - Eng отдельным файлом
Субтитры: Русские (только песни by AlexFilm), Русские (только песни by rtys)-

MI

Format                                   : AVI
Format/Info : Audio Video Interleave
File size : 1.46 GiB
Duration : 1h 32mn
Overall bit rate : 2 255 Kbps
Writing application : VirtualDubMod 1.5.10.3 | www.virtualdub-fr.org || (build 2550/release)
Writing library : VirtualDubMod build 2550/release
Video
ID : 0
Format : MPEG-4 Visual
Format profile : Advanced Simple@L5
Format settings, BVOP : 2
Format settings, QPel : No
Format settings, GMC : No warppoints
Format settings, Matrix : Custom
Codec ID : XVID
Codec ID/Hint : XviD
Duration : 1h 32mn
Bit rate : 1 861 Kbps
Width : 720 pixels
Height : 400 pixels
Display aspect ratio : 16:9
Frame rate : 24.000 fps
Color space : YUV
Chroma subsampling : 4:2:0
Bit depth : 8 bits
Scan type : Progressive
Compression mode : Lossy
Bits/(Pixel*Frame) : 0.269
Stream size : 1.20 GiB (83%)
Writing library : XviD 64
Audio
ID : 1
Format : AC-3
Format/Info : Audio Coding 3
Mode extension : CM (complete main)
Format settings, Endianness : Big
Codec ID : 2000
Duration : 1h 32mn
Bit rate mode : Constant
Bit rate : 384 Kbps
Channel(s) : 6 channels
Channel positions : Front: L C R, Side: L R, LFE
Sampling rate : 48.0 KHz
Bit depth : 16 bits
Compression mode : Lossy
Stream size : 254 MiB (17%)
Alignment : Split accross interleaves
Interleave, duration : 42 ms (1.00 video frame)
Interleave, preload duration : 500 ms

Скриншоты

[Профиль] [ЛС]
Показать сообщения:    

Текущее время: Сегодня 20:44

Часовой пояс: GMT



Вы не можете начинать темы
Вы не можете отвечать на сообщения
Вы не можете редактировать свои сообщения
Вы не можете удалять свои сообщения
Вы не можете голосовать в опросах
Вы не можете прикреплять файлы к сообщениям
Вы не можете скачивать файлы