Метро (Антон Мегердичев) [2012, Россия, триллер, драма, BDRip 1080p] Original (Rus) + Sub (Rus, Eng)

 
Автор Сообщение

TorrentFilm ®

Пол:

Стаж: 2 года

Сообщений: 7741



Награды: Нет

Торрент-статистика

Создавать темы 03-Янв-2016 00:05

[Цитировать]

Метро
Выпущено: Россия, Профит
Жанр: триллер, драма
Год выпуска: 2012
Продолжительность: 02:06:21
Субтитры: русские, английские
Навигация по главам: есть
Режиссер: Антон Мегердичев
В ролях: Сергей Пускепалис, Анатолий Белый, Анфиса Вистингаузен, Алексей Бардуков, Екатерина Шпица, Елена Панова, Станислав Дужников, Светлана Ходченкова, Сергей Сосновский, Ярослав Жалнин, Александр Яковлев, Владимир Стержаков, Александр Фисенко, Иван Макаревич, Максим Линников, Иван Лапин, Олег Заболотный, Кирилл Плетнёв, Дмитрий Орлов, Анатолий Котенёв, Дмитрий Высоцкий, Александр Журман, Екатерина Директоренко, Александр Армер, Александр Вдовин, Денис Парамонов, Елена Гольянова, Николай Рябков, Михаил Фатеев, Елена Катышева, Ксения Березина, Сергей Коваленко, Вячеслав Иванов, Алексей Овсянников, Александр Тараньжин, Лилия Кондрова, Владимир Юматов, Иван Лешук, Алексей Фатеев
Описание: Широко развернувшееся в центре Москвы строительство новых зданий приводит к тому, что в одном из тоннелей метро между двумя станциями возникает трещина. Никто себе и представить не мог, что в результате нарушения герметичности перекрытия в тоннель хлынет вода из Москва-реки, и сотни пассажиров поезда окажутся во власти надвигающегося потопа. Бешеный поток воды грозит не только обрушением тоннелей метро, но и разрушением всего города. Среди попавших в беду людей — врач городской больницы Андрей Гарин и его дочь Ксюша. Гарин сражается с катастрофой, пытаясь спасти оставшихся в живых пассажиров, в том числе и …любовника своей жены. Гарину придется побороть обиду, гнев и страх. Он должен выжить, чтобы вернуть свою любовь, семью… свою прежнюю счастливую жизнь.

Релиз: fanatus
Качество видео: BDRip 1080p
Исходник: Metro.2013.1080p.Blu-ray.AVC.DTS-HD.MA.5.1-IRONCLUB
Контейнер: MKV
Видео: MPEG-4 AVC, 11.0 Mbps , 1920x816 (2.35:1), 23.976 fps, 0.293 bit/pixel
Аудио: DTS, 6 ch, 48 kHz, 1510 kbps

MediaInfo

General
Unique ID : 245982623447525320176994774065958034402 (0xB90E87B005F4BE16AC30960172F31BE2)
Complete name : F:\Metro.2012.x264.BDRip.1080p.fanatus.mkv
Format : Matroska
Format version : Version 2
File size : 11.5 GiB
Duration : 2h 11mn
Overall bit rate : 12.5 Mbps
Movie name : Metro (2012) - fanatus
Encoded date : UTC 2013-10-26 08:44:14
Writing application : mkvmerge v3.4.0 ('Rapunzel') сборка от May 15 2010 09:38:20
Writing library : libebml v0.8.0 + libmatroska v0.9.0
Video
ID : 1
Format : AVC
Format/Info : Advanced Video Codec
Format profile : High@L4.1
Format settings, CABAC : Yes
Format settings, ReFrames : 5 frames
Codec ID : V_MPEG4/ISO/AVC
Duration : 2h 11mn
Bit rate : 11.0 Mbps
Width : 1 920 pixels
Height : 816 pixels
Display aspect ratio : 2.35:1
Frame rate : 23.976 fps
Color space : YUV
Chroma subsampling : 4:2:0
Bit depth : 8 bits
Scan type : Progressive
Bits/(Pixel*Frame) : 0.293
Stream size : 9.89 GiB (86%)
Title : Metro (2012) BDRip 1080p
Writing library : x264 core 138 r2358kMod 9e941d1
Encoding settings : cabac=1 / ref=5 / deblock=1:-3:-3 / analyse=0x3:0x113 / me=tesa / subme=11 / psy=1 / fade_compensate=0.00 / psy_rd=1.00:0.10 / mixed_ref=1 / me_range=48 / chroma_me=1 / trellis=2 / 8x8dct=1 / cqm=0 / deadzone=21,11 / fast_pskip=0 / chroma_qp_offset=-3 / threads=16 / lookahead_threads=2 / sliced_threads=0 / nr=0 / decimate=0 / interlaced=0 / bluray_compat=0 / constrained_intra=0 / bframes=9 / b_pyramid=2 / b_adapt=2 / b_bias=0 / direct=3 / weightb=1 / open_gop=0 / weightp=2 / keyint=240 / keyint_min=23 / scenecut=40 / intra_refresh=0 / rc_lookahead=240 / rc=2pass / mbtree=0 / bitrate=11000 / ratetol=1.0 / qcomp=0.70 / qpmin=0 / qpmax=69 / qpstep=4 / cplxblur=20.0 / qblur=0.5 / vbv_maxrate=50000 / vbv_bufsize=62500 / nal_hrd=none / ip_ratio=1.40 / pb_ratio=1.30 / aq=3:0.80
Language : Russian
Default : Yes
Forced : No
Audio
ID : 2
Format : DTS
Format/Info : Digital Theater Systems
Codec ID : A_DTS
Duration : 2h 11mn
Bit rate mode : Constant
Bit rate : 1 510 Kbps
Channel(s) : 6 channels
Channel positions : Front: L C R, Side: L R, LFE
Sampling rate : 48.0 KHz
Bit depth : 16 bits
Compression mode : Lossy
Stream size : 1.39 GiB (12%)
Title : Original
Language : Russian
Default : Yes
Forced : No
Text #1
ID : 3
Format : UTF-8
Codec ID : S_TEXT/UTF8
Codec ID/Info : UTF-8 Plain Text
Language : Russian
Default : No
Forced : No
Text #2
ID : 4
Format : UTF-8
Codec ID : S_TEXT/UTF8
Codec ID/Info : UTF-8 Plain Text
Language : English
Default : No
Forced : No
Menu
00:00:00.000 : en:Chapter 01
00:06:11.120 : en:Chapter 02
00:13:05.284 : en:Chapter 03
00:19:35.757 : en:Chapter 04
00:26:29.129 : en:Chapter 05
00:33:53.406 : en:Chapter 06
00:41:08.883 : en:Chapter 07
00:50:48.712 : en:Chapter 08
00:56:44.067 : en:Chapter 09
01:04:35.913 : en:Chapter 10
01:11:52.808 : en:Chapter 11
01:19:04.114 : en:Chapter 12
01:26:17.422 : en:Chapter 13
01:34:31.791 : en:Chapter 14
01:41:21.241 : en:Chapter 15
01:48:46.186 : en:Chapter 16
01:56:28.606 : en:Chapter 17
02:06:42.553 : en:Chapter 18
02:11:44.813 : en:Chapter 19

x264 [info]

x264 [info]: 1920x816p 1:1 @ 24000/1001 fps (cfr)
x264 [info]: frame I:1853 Avg QP:14.84 size:209760
x264 [info]: frame P:51561 Avg QP:17.43 size: 95787
x264 [info]: frame B:136114 Avg QP:19.56 size: 40690
x264 [info]: consecutive B-frames: 5.8% 7.8% 13.7% 18.9% 12.0% 37.7% 2.8% 0.2% 0.5% 0.6%
x264 [info]: mb I I16..4: 22.0% 45.9% 32.2%
x264 [info]: mb P I16..4: 3.6% 22.3% 3.1% P16..4: 27.3% 29.8% 8.6% 0.0% 0.0% skip: 5.3%
x264 [info]: mb B I16..4: 0.3% 2.7% 0.4% B16..8: 42.6% 22.3% 3.4% direct: 7.2% skip:21.1% L0:45.8% L1:42.9% BI:11.3%
x264 [info]: 8x8 transform intra:74.7% inter:47.8%
x264 [info]: direct mvs spatial:99.0% temporal:1.0%
x264 [info]: coded y,uvDC,uvAC intra: 91.6% 75.7% 47.7% inter: 38.9% 25.6% 8.1%
x264 [info]: i16 v,h,dc,p: 16% 10% 29% 45%
x264 [info]: i8 v,h,dc,ddl,ddr,vr,hd,vl,hu: 9% 8% 11% 10% 13% 12% 12% 12% 14%
x264 [info]: i4 v,h,dc,ddl,ddr,vr,hd,vl,hu: 11% 11% 14% 8% 12% 11% 12% 10% 13%
x264 [info]: i8c dc,h,v,p: 34% 30% 21% 15%
x264 [info]: Weighted P-Frames: Y:6.5% UV:4.6%
x264 [info]: ref P L0: 52.9% 8.4% 21.0% 8.5% 7.3% 1.8% 0.1%
x264 [info]: ref B L0: 82.9% 12.0% 3.9% 1.2%
x264 [info]: ref B L1: 95.0% 5.0%
x264 [info]: kb/s:10996.84
x264 [info]: encoded 189528 frames, 1.01 fps, 10996.84 kb/s, duration 52:04:11.48

Скриншот c названием фильма

Скриншоты

[Профиль] [ЛС]
Показать сообщения:    

Текущее время: Сегодня 02:16

Часовой пояс: GMT



Вы не можете начинать темы
Вы не можете отвечать на сообщения
Вы не можете редактировать свои сообщения
Вы не можете удалять свои сообщения
Вы не можете голосовать в опросах
Вы не можете прикреплять файлы к сообщениям
Вы не можете скачивать файлы