Метаморфозис (Сергей Тарамаев, Любовь Львова) [2015, Россия, драма, WEB-DL 720p] + Original Rus

 
Автор Сообщение

TorrentFilm ®

Пол:

Стаж: 2 года

Сообщений: 7741



Награды: Нет

Торрент-статистика

Создавать темы 18-Фев-2016 00:09

[Цитировать]

Метаморфозис
Страна: Россия
Студия: Альфа-Бета Филмс
Жанр: драма
Год выпуска: 2015
Продолжительность: 01:43:08
Перевод: Не требуется
Cубтитры: нет
Оригинальная аудиодорожка: русский
Режиссер: Сергей Тарамаев, Любовь Львова
В ролях: Егор Корешков, Евгений Ткачук, Василиса Бернаскони, Юлия Ауг, Ёла Санько, Денис Шведов, Амбарцум Кабанян, Сергей Русскин, Николай Орловский, Светлана Столярова
Описание: Жизнь талантливого пианиста Алексея Сенина — это репетиции, концерты, музыка. Ничего, кроме музыки. Мать, целиком подчинившая своей безумной любовью сына. Тетка, озабоченная исключительно бытом. Предприимчивый директор Влад. Ближний круг — из абсолютно чужих ему людей. В свои двадцать пять Алексей, несмотря на известность и признание, словно одинокий несчастный ребенок. Однажды, выступая в доме состоятельного бизнесмена, он знакомится с дочкой хозяина, 11-летней Сашей. И в ней он находит родственную душу. Их невинная дружба вызывает вокруг страшную бурю злобы, запретов и насилия. Девочка и музыкант — два чистых и светлых человека, против которых ополчился циничный, жестокий и больной мир…

Sample
Тип релиза: WEB-DL 720p
Контейнер: MKV
Видео: MPEG4 AVC Video, H264, 16:9, 1280x536, 24 fps, 3804 kbps
Аудио: Russian (AC3, 6 ch, 384 kbps, 16 bits, 48.0 KHz) - оригинал

MediaInfo

General
Unique ID : 190801050211830570859229695496232251295 (0x8F8AF212FEDF009DA28C7EC84E3A2F9F)
Complete name : E:\Метаморфозис 2015 WEB-DL 720p.mkv
Format : Matroska
Format version : Version 2
File size : 3.08 GiB
Duration : 1h 43mn
Overall bit rate : 4 273 Kbps
Encoded date : UTC 2015-12-31 21:09:39
Writing application : mkvmerge v8.3.0 ('Over the Horizon') 64bit
Writing library : libebml v1.3.1 + libmatroska v1.4.2
DURATION : 01:43:08.896000000
NUMBER_OF_FRAMES : 193403
NUMBER_OF_BYTES : 297067008
_STATISTICS_WRITING_APP : mkvmerge v8.3.0 ('Over the Horizon') 64bit
_STATISTICS_WRITING_DATE_UTC : 2015-12-31 21:09:39
_STATISTICS_TAGS : BPS DURATION NUMBER_OF_FRAMES NUMBER_OF_BYTES
Video
ID : 1
Format : AVC
Format/Info : Advanced Video Codec
Format profile : Main@L3.1
Format settings, CABAC : No
Format settings, ReFrames : 2 frames
Codec ID : V_MPEG4/ISO/AVC
Duration : 1h 43mn
Bit rate : 3 804 Kbps
Width : 1 280 pixels
Height : 536 pixels
Display aspect ratio : 2.40:1
Frame rate mode : Constant
Frame rate : 24.000 fps
Color space : YUV
Chroma subsampling : 4:2:0
Bit depth : 8 bits
Scan type : Progressive
Bits/(Pixel*Frame) : 0.231
Stream size : 2.74 GiB (89%)
Language : English
Default : Yes
Forced : No
Color primaries : BT.709
Transfer characteristics : BT.709
Matrix coefficients : BT.709
Audio
ID : 2
Format : AC-3
Format/Info : Audio Coding 3
Mode extension : CM (complete main)
Format settings, Endianness : Big
Codec ID : A_AC3
Duration : 1h 43mn
Bit rate mode : Constant
Bit rate : 384 Kbps
Channel count : 6 channels
Channel positions : Front: L C R, Side: L R, LFE
Sampling rate : 48.0 KHz
Bit depth : 16 bits
Compression mode : Lossy
Stream size : 283 MiB (9%)
Language : Russian
Default : Yes
Forced : No

Скриншоты

[Профиль] [ЛС]
Показать сообщения:    

Текущее время: Сегодня 03:11

Часовой пояс: GMT



Вы не можете начинать темы
Вы не можете отвечать на сообщения
Вы не можете редактировать свои сообщения
Вы не можете удалять свои сообщения
Вы не можете голосовать в опросах
Вы не можете прикреплять файлы к сообщениям
Вы не можете скачивать файлы