Место встречи изменить нельзя (1979) DVDRip [H.264] [5 серий из 5]

 
Автор Сообщение

sergej644 ®

Пол:

Стаж: 4 года 11 месяцев

Сообщений: 6041

Откуда: Soviet Union



Награды: Нет

Торрент-статистика

Создавать темы 02-Дек-2014 19:32

[Цитировать]

-Место встречи изменить нельзя (1979) DVDRip- Год выпуска: 1979
Жанр: Криминал, Драма
Описание фильма:
Убийства, засады, погони, перестрелки — на фоне послевоенной Москвы. Сотрудники МУРа против таинственной и неуловимой банды «Черная кошка». Демобилизовавшийся офицер разведки Володя Шарапов начинает работать в отделе по борьбе с бандитизмом. Одно из первых дел, в расследовании которых он участвует, — убийство Ларисы Груздевой…
Режиссер: Станислав Говорухин
Актеры: Владимир Конкин, Владимир Высоцкий, Сергей Юрский, Виктор Павлов, Наталья Фатеева, Леонид Куравлев, Светлана Светличная, Александр Белявский, Евгений Евстигнеев, Армен Джигарханян, Лариса Удовиченко, Станислав Садальский, Зиновий Гердт, Лев Перфилов, Александр Абдулов, Иван Бортник, Наталья Крачковская, Наталья Данилова, Наталья Петрова-Серуш
Продолжительность: 05:44:41 (5 серий)
Качество видео: DVDRip

Видеокодек: MPEG-4 AVC/H.264
Битрейт видео: ~1210 kbps
Размер кадра: 720x536
Аудиокодек: AC3 2.0
Битрейт аудио: 256 kbps

Medianfo:

General
Unique ID                      : 193217196957845883585782291484460814480 (0x915C474E57C9F40FB97831ECF47D9090)
Complete name                  : Место встречи изменить нельзя - 5 серий
Format                         : Matroska
Format version                 : Version 4 / Version 2
File size                      : 3,53 GB
Duration                       : 05:44:41
Overall bit rate               : 1 472 Kbps
Movie name                     : Место встречи изменить нельзя (rip by smithland)
Encoded date                   : UTC 2010-02-22 21:41:31
Writing application            : mkvmerge v5.9.0 ('On The Loose')
Writing library                : libebml v1.3.0 + libmatroska v1.4.0
Attachements                   : cover.png
Video
ID                             : 1
Format                         : AVC
Format/Info                    : Advanced Video Codec
Format profile                 : [url=mailto:High@L4.0]High@L4.0[/url]
Format settings, CABAC         : Yes
Format settings, ReFrames      : 10 frames
Codec ID                       : V_MPEG4/ISO/AVC
Bit rate                       : 1 210 Kbps
Width                          : 720 pixels
Height                         : 536 pixels
Display aspect ratio           : 4:3
Frame rate mode                : Constant
Frame rate                     : 25.000 fps
Color space                    : YUV
Chroma subsampling             : 4:2:0
Bit depth                      : 8 bits
Scan type                      : Progressive
Bits/(Pixel*Frame)             : 0.125
Stream size                    : 562 MiB (81%)
Writing library                : x264 core 130 r2273 b3065e6
Encoding settings              : cabac=1 / ref=10 / deblock=1:-1:0 / analyse=0x3:0x133 / me=umh / subme=11 / psy=1 / psy_rd=1.35:0.40 / mixed_ref=1 / me_range=28 / chroma_me=1 / trellis=2 / 8x8dct=1 / cqm=0 / deadzone=21,11 / fast_pskip=1 / chroma_qp_offset=-4 / threads=12 / lookahead_threads=1 / sliced_threads=0 / nr=0 / decimate=0 / interlaced=0 / bluray_compat=0 / constrained_intra=0 / bframes=7 / b_pyramid=2 / b_adapt=1 / b_bias=0 / direct=1 / weightb=1 / open_gop=1 / weightp=2 / keyint=250 / keyint_min=25 / scenecut=40 / intra_refresh=0 / rc_lookahead=40 / rc=abr / mbtree=1 / bitrate=1210 / ratetol=1.0 / qcomp=0.60 / qpmin=0 / qpmax=69 / qpstep=4 / ip_ratio=1.41 / aq=1:1.10
Language                       : Russian
Default                        : Yes
Forced                         : Yes
Color primaries                : Generic film
Audio
ID                             : 2
Format                         : AC-3
Format/Info                    : Audio Coding 3
Mode extension                 : CM (complete main)
Format settings, Endianness    : Big
Codec ID                       : A_AC3
Duration                       : 1h 6mn
Bit rate mode                  : Constant
Bit rate                       : 256 Kbps
Channel(s)                     : 2 channels
Channel positions              : Front: L R
Sampling rate                  : 48.0 KHz
Bit depth                      : 16 bits
Compression mode               : Lossy
Stream size                    : 121 MiB (17%)
Language                       : Russian
Default                        : Yes
Forced                         : Yes
Скриншоты: Время раздачи: 12:00-22:00
[Профиль] [ЛС]

Создавать темы 06-Авг-2015 22:03 (спустя 8 месяцев 4 дня)

Топик был перенесен из форума Кино СССР в форум Кино СССР
sergej644
 
Кто просматривает тему:

Форум Тема Автор Размер
XXXI Летние Олимпийские игры. Рио-де-Жанейро 2016 (Бразилия) XXXI Летние Олимпийские Игры. Волейбол. Женщины. Матч за 3 место. Голландия - США [Матч Игра HD] (2016) HDTV 1080i от GeneralFilm BOSS 6.34 GB
XXXI Летние Олимпийские игры. Рио-де-Жанейро 2016 (Бразилия) XXXI Летние Олимпийские Игры. Рио-де-Жанейро (Бразилия). Водное поло. Женщины. За 3-е место Россия - Венгрия [19.08] (2016) IPTVRip 720p ODESSA 1.44 GB
XXXI Летние Олимпийские игры. Рио-де-Жанейро 2016 (Бразилия) XXXI Летние Олимпийские Игры. Рио-де-Жанейро (Бразилия). Вольная борьба. Женщины до 48, 58, 69 кг. Предварительные поединки, 1/8, 1/4, 1/2 финала, поединки за 3-е место. Финалы. Награждение [17.08]... BOSS 8.58 GB
XXXI Летние Олимпийские игры. Рио-де-Жанейро 2016 (Бразилия) XXXI Летние Олимпийские Игры. Рио-де-Жанейро (Бразилия). Греко-римская борьба. До 59кг и до 75кг. Утешительные поединки, за 3-е место. Финалы. Награждения [14.08] (2016) IPTVRip-AVC ODESSA 4.55 GB
XXXI Летние Олимпийские игры. Рио-де-Жанейро 2016 (Бразилия) XXXI Летние Олимпийские Игры. Рио-де-Жанейро (Бразилия). Греко-римская борьба. До 66кг и до 98кг. Предварительные поединки, 1/8, 1/4, 1/2 финала, утешительные поединки, поединки за 3-е место. Финалы... BOSS 4.95 GB
XXXI Летние Олимпийские игры. Рио-де-Жанейро 2016 (Бразилия) XXXI Летние Олимпийские Игры. Рио-де-Жанейро (Бразилия). Греко-римская борьба. Предварительные поединки, 1/8, 1/4, 1/2 финала, утешительные поединки, за 3-е место. Финалы. Награждение [15.08] (2016)... ODESSA 7.13 GB
XXXI Летние Олимпийские игры. Рио-де-Жанейро 2016 (Бразилия) XXXI Летние Олимпийские Игры. Рио-де-Жанейро (Бразилия). Женщины. Командное первенство. 1/8, 1/4, 1/2 финала, за 3-е место, Финал [07.08] (2016) IPTV 1080i Russian Mafia 4.78 GB
XXXI Летние Олимпийские игры. Рио-де-Жанейро 2016 (Бразилия) XXXI Летние Олимпийские Игры. Рио-де-Жанейро (Бразилия). Мужчины до 81 кг, Женщины до 63 кг. Утешительные поединки, полуфиналы, за 3 место, финалы [09.08] (2016) IPTVRip-AVC BOSS 2.92 GB
Показать сообщения:    

Текущее время: Сегодня 18:59

Часовой пояс: GMT



Вы не можете начинать темы
Вы не можете отвечать на сообщения
Вы не можете редактировать свои сообщения
Вы не можете удалять свои сообщения
Вы не можете голосовать в опросах
Вы не можете прикреплять файлы к сообщениям
Вы не можете скачивать файлы