Месснер / Messner (Андреас Никель / Andreas Nickel) [2012, Документальный, спорт, альпинизм, BDRemux 1080i]

 
Автор Сообщение

TorrentFilm ®

Пол:

Стаж: 2 года

Сообщений: 7741



Награды: Нет

Торрент-статистика

Создавать темы 01-Мар-2015 00:01

[Цитировать]

Месснер / Messner- Год выпуска: 2012
Страна: Германия
Жанр: Документальный, драма, приключения, биография, спорт
Продолжительность: 01:44:13
Перевод: Любительский одноголосый (Сергей Бельчиков ака ZERZIA)
Русские субтитры: нет
Режиссер: Андреас Никель / Andreas Nickel
В ролях: Рейнхольд Месснер, Хельмут Месснер, Хуберт Месснер, Хансйорг Месснер, Урсула Гретер-Эндерс, Питер Хабелер, Ханс Каммерландер и др.-Описание: Рейнхольд Месснер. Многие уверенны в том, что знают о нем все досконально. Пожалуй ни один спортсмен (в общем понимании этого термина, а не только в альпинистском) не написал о себе такого невероятного количества книг. Не удивительно, что для большинства почитателей он и сам, простите за тавтологию, как открытая книга. Всем известны его успехи: 14 восьмитысячников без дополнительного кислорода, пересечение величайших пустынь и полюсов, его замки. Всем известны его скандальные судебные разбирательства с почти всеми руководителями его ранних экспедиций. Всем известны не менее скандальные разбирательства со своими партнерами — начиная с Хабелера, заканчивая Казаротто и Каммерландером. Он известен, просто известен. А музеи, замки и прочее — нормальная такая монетизация имени.
Многие им восхищаются, многие его на дух не переносят. Известный продюсер и режиссер Андреас Никель решил разобраться с этим феноменом. Рейнхольд Месснер. Кто он? Кто этот человек? Откуда он пришел, что движет им?
В разговорах с самим Месснером, с его спутниками в горах (Хабелер, Каммерландер, Фанкхаузер и Наирц), с его женщиной (Урсулой Гретер-Эндерс), с его братьями (Проф. Док. Хельмут Месснер, Док. Хуберт Месснер, Док. Хансйорг Месснер) появляется портрет того, кто повлиял на современный альпинизм как никто другой. Его успехи — всего лишь отражения его многочисленных проигрышей.
Этот фильм не о восхождении на вершины, и уж тем более не о технической стороне его альпинизма, и даже близко не о героизме. Ярче всего в этом фильме показана тоска молодого человека по свободе! Желание вырваться из узких южно-тирольских долин, сбежать в высокие горы свободного, бескрайнего мира. На пути к свободе для Рейнхольда нет непреодолимых преград.
Фильм показывает внутренний мир Рейнхольда и его видение мира внешнего, его отношение к горам и к людям, поднимающимся на них. Повествование уводит не только в бесконечную высь неприступных стен, но и вглубь месснеровской души, откуда открывается его личный взгляд на многие вещи…
-Доп. информация:
Сохранены оригинальные чаптеры как на Blu-ray
За Blu-ray диск большое спасибо Electr0man!-Сэмпл
Тип релиза: BDRemux 1080i
Контейнер: MKV
Видео: H.264/AVC, 1920x1080, 16:9, ~18,3Mbps, 25.000 fps
Аудио 1: Russian, AC-3, 2.0, 48 kHz, 16 bit, 192 kbps
Аудио 2: German, DTS MA, 7.1 / 5.1 channels, 48 kHz, 24 bit, 1561 Kbps / 1510 Kbps
Субтитры: Russian (UTF-8), English (UTF-8), Portuguese (UTF-8), Croatian (UTF-8), Hungarian (UTF-8)

Отчет MediaInfo

Общее
Уникальный идентификатор : 180207879059187616241189471676644945165 (0x8792C669A434BDB08695E202868F6D0D)
Полное имя : E:\Messner 2012 BDremux.mkv
Формат : Matroska
Версия формата : Version 2
Размер файла : 13,3 Гбайт
Продолжительность : 1 ч. 44 м.
Режим общего битрейта : Переменный
Общий поток : 18,3 Мбит/сек
Дата кодирования : UTC 2015-02-24 08:07:48
Программа кодирования : mkvmerge v7.0.0 ('Where We Going') 32bit built on Jun 9 2014 15:08:34
Библиотека кодирования : libebml v1.3.0 + libmatroska v1.4.1
DURATION : 01:40:21.940000000
NUMBER_OF_FRAMES : 1262
NUMBER_OF_BYTES : 63277
_STATISTICS_WRITING_APP : mkvmerge v7.0.0 ('Where We Going') 32bit built on Jun 9 2014 15:08:34
_STATISTICS_WRITING_DATE_UTC : 2015-02-24 08:07:48
_STATISTICS_TAGS : BPS DURATION NUMBER_OF_FRAMES NUMBER_OF_BYTES
Видео
Идентификатор : 1
Формат : AVC
Формат/Информация : Advanced Video Codec
Профиль формата : High@L4.1
Параметр CABAC формата : Да
Параметр ReFrames формата : 4 кадра
Идентификатор кодека : V_MPEG4/ISO/AVC
Продолжительность : 1 ч. 44 м.
Вид битрейта : Переменный
Битрейт : 16,2 Мбит/сек
Максимальный битрейт : 22,0 Мбит/сек
Ширина : 1920 пикселей
Высота : 1080 пикселей
Соотношение сторон : 16:9
Частота кадров : 25,000 кадров/сек
Стандарт вещания : PAL
Цветовое пространство : YUV
Субдискретизация насыщенности : 4:2:0
Битовая глубина : 8 бит
Тип развёртки : Чересстрочная
Порядок развёртки : Верхнее поле первое
Бит/(Пиксели*Кадры) : 0.312
Размер потока : 11,8 Гбайт (88%)
Default : Нет
Forced : Нет
DURATION : 01:44:13.740000000
NUMBER_OF_FRAMES : 312686
NUMBER_OF_BYTES : 12505746832
_STATISTICS_WRITING_APP : mkvmerge v7.0.0 ('Where We Going') 32bit built on Jun 9 2014 15:08:34
_STATISTICS_WRITING_DATE_UTC : 2015-02-24 08:07:48
_STATISTICS_TAGS : BPS DURATION NUMBER_OF_FRAMES NUMBER_OF_BYTES
Основные цвета : BT.709-5, BT.1361, IEC 61966-2-4, SMPTE RP177
Характеристики трансфера : BT.709-5, BT.1361
Коэффициенты матрицы : BT.709-5, BT.1361, IEC 61966-2-4 709, SMPTE RP177
Аудио #1
Идентификатор : 2
Формат : AC-3
Формат/Информация : Audio Coding 3
Расширение режима : CM (complete main)
Идентификатор кодека : A_AC3
Продолжительность : 1 ч. 44 м.
Вид битрейта : Постоянный
Битрейт : 192 Кбит/сек
Каналы : 2 канала
Расположение каналов : Front: L R
Частота : 48,0 КГц
Битовая глубина : 16 бит
Метод сжатия : С потерями
Размер потока : 143 Мбайт (1%)
Язык : Russian
Default : Да
Forced : Нет
Аудио #2
Идентификатор : 3
Формат : DTS
Формат/Информация : Digital Theater Systems
Профиль формата : MA / Core
Идентификатор кодека : A_DTS
Продолжительность : 1 ч. 44 м.
Вид битрейта : Переменный
Битрейт : 1561 Кбит/сек / 1510 Кбит/сек
Каналы : 6 каналов
Расположение каналов : Front: L C R, Side: L R, LFE
Частота : 48,0 КГц
Битовая глубина : 24 бит
Метод сжатия : Без потерь / Lossy
Язык : German
Default : Нет
Forced : Нет
Текст #1
Идентификатор : 4
Формат : UTF-8
Идентификатор кодека : S_TEXT/UTF8
Идентификатор кодека/Информация : UTF-8 Plain Text
Язык : Russian
Default : Да
Forced : Нет
Текст #2
Идентификатор : 5
Формат : UTF-8
Идентификатор кодека : S_TEXT/UTF8
Идентификатор кодека/Информация : UTF-8 Plain Text
Язык : English
Default : Нет
Forced : Нет
Текст #3
Идентификатор : 6
Формат : UTF-8
Идентификатор кодека : S_TEXT/UTF8
Идентификатор кодека/Информация : UTF-8 Plain Text
Язык : Portuguese
Default : Нет
Forced : Нет
Текст #4
Идентификатор : 7
Формат : UTF-8
Идентификатор кодека : S_TEXT/UTF8
Идентификатор кодека/Информация : UTF-8 Plain Text
Язык : Croatian
Default : Нет
Forced : Нет
Текст #5
Идентификатор : 8
Формат : UTF-8
Идентификатор кодека : S_TEXT/UTF8
Идентификатор кодека/Информация : UTF-8 Plain Text
Язык : Hungarian
Default : Нет
Forced : Нет
Меню
00:00:00.000 : en:00:00:00.000
00:09:24.480 : en:00:09:24.480
00:27:30.240 : en:00:27:30.240
00:37:34.560 : en:00:37:34.560
00:51:52.320 : en:00:51:52.320
01:02:18.720 : en:01:02:18.720
01:18:41.280 : en:01:18:41.280
01:30:30.240 : en:01:30:30.240

Скриншоты

[Профиль] [ЛС]
Кто просматривает тему:

Показать сообщения:    

Текущее время: Сегодня 18:57

Часовой пояс: GMT



Вы не можете начинать темы
Вы не можете отвечать на сообщения
Вы не можете редактировать свои сообщения
Вы не можете удалять свои сообщения
Вы не можете голосовать в опросах
Вы не можете прикреплять файлы к сообщениям
Вы не можете скачивать файлы