Мертвячка / Deadgirl (Марсель Сармиенто / Marcel Sarmiento, Гади Хэрел / Gadi Harel) [2008 г., США, ужасы, триллер, BDRip] DVO + VO (zamez)

 
Автор Сообщение

painkiller ®

Стаж: 2 года 3 месяца

Сообщений: 582



Награды: Нет

Торрент-статистика

Создавать темы 15-Авг-2014 10:17

[Цитировать]

МертвячкаDeadgirl-«You Never Forget Your First Time»- Год выпуска: 2008
Страна: США-Жанр: ужасы, триллер
Продолжительность: 01:41:36
Перевод:
  • Любительский (двухголосый закадровый)
  • Одноголосый закадровый (zamez)
Субтитры: нет-Режиссер: Марсель Сармиенто / Marcel Sarmiento, Гади Хэрел / Gadi Harel
Сценарий: Трент Хаага / Trent Haaga
Продюсер: Гади Хэрел / Gadi Harel, Марсель Сармиенто / Marcel Sarmiento, Брендан Дэвис / Brendan Davis, Синтия Гранер / Cynthia Graner, Роб Хикман / Rob Hickman
Оператор: Харрис Хараламбус / Harris Charalambous
Композитор: Джозеф Бауэр / Joseph Bauer-В ролях: Шайло Фернандес (Rickie), Ной Сеган (JT), Кэндис Аккола (Joann), Эрик Поднар (Wheeler), Дженни Спэйн (Deadgirl), Эндрю ДиПальма (Johnny), Нолан Фанк (Dwyer), Майкл Боуэн (Clint), Дэвид Алан Граф (Mr. Harrison), Сьюзэн Мари Келлер (Nikki), Тимоти Мускателл (Wes), Келли Кентвелл (Brit)-Описание: Два лучших друга, Рикки и Джей Ти, решили прогулять школу. Только заброшенная психиатрическая лечебница - не самое лучшее место для прогулок. Обнаружив в подвале труп девушки, они не стали вызывать полицию, что привело к самым неожиданным последствиям...-kinopoisk.ru: 5.402 (1508)
imdb.com: 5.70 (11 844)
MPAA: R - Лицам до 17 лет обязательно присутствие взрослого-Внимание! Фильм изобилует сценами насилия и ненормативной лексикой! 18+-Качество: BDRip
Контейнер: AVI
Видео: 720x304 (2.37:1), 23.976 fps, XviD build 65 ~1619 kbps avg, 0.31 bit/pixel
Аудио I: 48 kHz, AC3 Dolby Digital, 3/2 (L,C,R,l,r) + LFE ch, ~448 kbps (DVO)
Аудио II: 48 kHz, AC3 Dolby Digital, 3/2 (L,C,R,l,r) + LFE ch, ~448 kbps (VO) (отдельно)-
-

MediaInfo

General
Complete name                            : E:\Рипы\Deadgirl.2008.BDRip.All.Films\Deadgirl.2008.BDRip.All.Films.avi
Format                                   : AVI
Format/Info                              : Audio Video Interleave
File size                                : 1.47 GiB
Duration                                 : 1h 41mn
Overall bit rate                         : 2 077 Kbps
Movie name                               : Deadgirl.2008.BDRip.All.Films
Director                                 : DIABLO93
Genre                                    : Horror
Writing application                      : VirtualDubMod 1.5.10.3 | www.virtualdub-fr.org || (build 2550/release)
Original source form/Name                : Movie
Copyright                                : Rutracker.org (R.G. All Films)
Video
ID                                       : 0
Format                                   : MPEG-4 Visual
Format profile                           : Advanced Simple@L5
Format settings, BVOP                    : 2
Format settings, QPel                    : No
Format settings, GMC                     : No warppoints
Format settings, Matrix                  : Custom
Codec ID                                 : XVID
Codec ID/Hint                            : XviD
Duration                                 : 1h 41mn
Bit rate                                 : 1 620 Kbps
Width                                    : 720 pixels
Height                                   : 304 pixels
Display aspect ratio                     : 2.35:1
Frame rate                               : 23.976 fps
Color space                              : YUV
Chroma subsampling                       : 4:2:0
Bit depth                                : 8 bits
Scan type                                : Progressive
Compression mode                         : Lossy
Bits/(Pixel*Frame)                       : 0.309
Stream size                              : 1.15 GiB (78%)
Writing library                          : XviD 65
Audio
ID                                       : 1
Format                                   : AC-3
Format/Info                              : Audio Coding 3
Mode extension                           : CM (complete main)
Format settings, Endianness              : Big
Codec ID                                 : 2000
Duration                                 : 1h 41mn
Bit rate mode                            : Constant
Bit rate                                 : 448 Kbps
Channel(s)                               : 6 channels
Channel positions                        : Front: L C R, Side: L R, LFE
Sampling rate                            : 48.0 KHz
Bit depth                                : 16 bits
Compression mode                         : Lossy
Stream size                              : 326 MiB (22%)
Alignment                                : Split accross interleaves
Interleave, duration                     : 42 ms (1.00 video frame)
Interleave, preload duration             : 500 ms

-

Скриншоты

-
[Профиль] [ЛС]

Создавать темы 06-Авг-2015 23:10 (спустя 11 месяцев 22 дня)

Топик был перенесен из форума Фильмы до 2014 года в форум Фильмы до 2012 года
sergej644
 

Создавать темы 12-Июн-2016 08:51 (спустя 1 год 9 месяцев)

Топик был перенесен из форума Фильмы 2011 года в форум Фильмы 2006-2008 года
Russian Mafia
 
Кто просматривает тему:

Форум Тема Автор Размер
Фильмы 2011 года DOA: Живой или мертвый / DOA: Dead or Alive (2006) BDRip Russian Mafia 1.45 GB
Music from other genres JO-34 и Мертвый груз - Болевое - LP (2014) MP3 sergej644 187 MB
Action Land of the Dead: Road to Fiddler\'s Green / Земля мертвых: Дорога к Фиддлерз Грин [L] [RUS / RUS] (2005) TorrentFilm 990 MB
PBS PBS: Тайны Мертвых. Загадка серебряного фараона / Secrets of the Dead. The Silver Pharaoh [сезон 10 эпизод 1 ] (Энди Вебб / Andy Webb) [2010 г., Документальный, научно-познавательный, и... skorpionN 1.31 GB
PBS PBS: Тайны Мертвых. Затерянный в Амазонке / Secrets of the Dead. Lost in the Amazon [сезон 11 эпизод 1 ] (Петер Вон Путткамер / Peter Von Puttkamer) [2011 г., Документальный, познавательный, история,... skorpionN 1.47 GB
PBS PBS: Тайны Мертвых. Потерянные воины Карфагена / Secrets of the Dead. Carthage's lost Warriors (Майкл Грегор / Michael Gregor) [2014 г., Документальный, исследование, история, HDTVRip 720p] skorpionN 897 MB
PBS PBS: Тайны Мертвых. Потерянные корабли Древнего Рима / Secrets of the Dead. Lost Ships of Rome [сезон 10 эпизод 3 ] (Роберт Хатэл / Robert Hartel) [2010 г., Документальный, исследование, история,... skorpionN 1.57 GB
PBS PBS: Тайны Мертвых. Человек, который спас мир / Secrets of the Dead. The Man Who Saved the World [сезон 12 эпизод 1] (Ник Грин / Nick Green) [2012 г., Документальный, история, HDTVRip 720p] skorpionN 1.43 GB
Показать сообщения:    

Текущее время: Сегодня 08:31

Часовой пояс: GMT



Вы не можете начинать темы
Вы не можете отвечать на сообщения
Вы не можете редактировать свои сообщения
Вы не можете удалять свои сообщения
Вы не можете голосовать в опросах
Вы не можете прикреплять файлы к сообщениям
Вы не можете скачивать файлы