Мертвые не умирают / The Dead Don't Die (2019) BDRip | iTunes

 
Author Message

BOSS ®

Gender:

Longevity: 4 years 11 months

Posts: 14173

Location: ODESSA



: 22 ()

Top Seeder 5 (1) Top Keeper 4 (1) Mega Seeder 1 (1)
Торрент-статистика

Post 05-Sep-2019 18:18

[Quote]

Информация о фильме
Название: Мертвые не умирают
Оригинальное название: The Dead Don't Die
Год выхода: 2019
Жанр: Ужасы, фэнтези, комедия
Страна: США, Швеция
Перевод: Дублированный | iTunes
Продолжительность: 01:44:28
Режиссер: Джим Джармуш
В ролях: Адам Драйвер, Билл Мюррей, Хлоя Севиньи, Тильда Суинтон, Стив Бушеми, Селена Гомес, Роберт Фицджеральд Диггз, Том Уэйтс, Эстер Балинт, Дэнни Гловер и др.
О фильме: В захолустном американском городке что-то пошло не так. День никак не заканчивается, домашние животные убегают в лес, телефоны не работают, а по радио играет одна и та же песня. Вскоре выяснится, что эти аномалии происходят по всей земле, и ядовитый лунный свет воскресит давно почивших. Помощник шерифа уверен — грядёт нашествие зомби, и ничем хорошим это не кончится.

Файл
Формат: AVI
Качество: BDRip | The.Dead.Dont.Die.2019.1080p.BluRay.REMUX.AVC.DTS-HD.MA.5.1-FGT
Видео: Xvid 73, 704x400, ~1595 kbps, 23,976 fps
Звук: русский, AC3, 5.1 ch, 48 kHz, 384 kbps | iTunes
Субтитры: русские (форс. вшитые)

MI

Общее
Полное имя : G:Torrent2TheDeadDontDieBDRip.avi
Формат : AVI
Формат/Информация : Audio Video Interleave
Профиль формата : OpenDML
Размер файла : 1,45 Гбайт
Продолжительность : 1 ч. 44 м.
Общий поток : 1991 Кбит/сек
Программа кодирования : XviD4PSP 6.0 / 53.6.0
Видео
Идентификатор : 0
Формат : MPEG-4 Visual
Профиль формата : Advanced Simple@L5
Настройки формата : BVOP1 / Custom Matrix
Параметр BVOP формата : 1
Параметр QPel формата : Нет
Параметр GMC формата : Без точки перехода
Параметр матрицы формата : Выборочная
Идентификатор кодека : XVID
Идентификатор кодека/Подсказка : XviD
Продолжительность : 1 ч. 44 м.
Битрейт : 1595 Кбит/сек
Ширина : 704 пикселя
Высота : 400 пикселей
Соотношение сторон : 16:9
Частота кадров : 23,976 (23976/1000) кадра/сек
Цветовое пространство : YUV
Субдискретизация насыщенности : 4:2:0
Битовая глубина : 8 бит
Тип развёртки : Прогрессивная
Метод сжатия : С потерями
Бит/(Пиксели*Кадры) : 0.236
Размер потока : 1,16 Гбайт (80%)
Библиотека кодирования : XviD 73
Аудио
Идентификатор : 1
Формат : AC-3
Формат/Информация : Audio Coding 3
Параметр Endianness формата : Big
Идентификатор кодека : 2000
Продолжительность : 1 ч. 44 м.
Вид битрейта : Постоянный
Битрейт : 384 Кбит/сек
Каналы : 6 каналов
Расположение каналов : Front: L C R, Side: L R, LFE
Частота : 48,0 КГц
Частота кадров : 31,250 кадров/сек (1536 SPF)
Битовая глубина : 16 бит
Метод сжатия : С потерями
Размер потока : 287 Мбайт (19%)
Выравнивание : Соединение по промежуткам
Продолжительность промежутка : 32 мс. (0,77 видеокадр)

Скриншоты


Рип и релиз от:
[Profile] [PM]
Кто просматривает тему:

Forum Topic Author Size
Фильмы 2011 года DOA: Живой или мертвый / DOA: Dead or Alive (2006) BDRip Russian Mafia 1.45 GB
Music from other genres JO-34 и Мертвый груз - Болевое - LP (2014) MP3 sergej644 187 MB
PBS PBS: Секреты мертвых. Потерянные воины Карфагена / Secrets of the Dead. Carthage's lost Warriors (Майкл Грегор) [2014 г., Документально-постановочный, история, путешествия, HDTVRip-AVC 720p] skorpionN 1.65 GB
PBS PBS: Тайны Мертвых. Загадка серебряного фараона / Secrets of the Dead. The Silver Pharaoh [сезон 10 эпизод 1 ] (Энди Вебб / Andy Webb) [2010 г., Документальный, научно-познавательный, и... skorpionN 1.31 GB
PBS PBS: Тайны Мертвых. Затерянный в Амазонке / Secrets of the Dead. Lost in the Amazon [сезон 11 эпизод 1 ] (Петер Вон Путткамер / Peter Von Puttkamer) [2011 г., Документальный, познавательный, история,... skorpionN 1.47 GB
PBS PBS: Тайны Мертвых. Потерянные воины Карфагена / Secrets of the Dead. Carthage's lost Warriors (Майкл Грегор / Michael Gregor) [2014 г., Документальный, исследование, история, HDTVRip 720p] skorpionN 897 MB
PBS PBS: Тайны Мертвых. Потерянные корабли Древнего Рима / Secrets of the Dead. Lost Ships of Rome [сезон 10 эпизод 3 ] (Роберт Хатэл / Robert Hartel) [2010 г., Документальный, исследование, история,... skorpionN 1.57 GB
PBS PBS: Тайны Мертвых. Человек, который спас мир / Secrets of the Dead. The Man Who Saved the World [сезон 12 эпизод 1] (Ник Грин / Nick Green) [2012 г., Документальный, история, HDTVRip 720p] skorpionN 1.43 GB
Display posts from previous:    

The time now is: Today 05:24

All times are GMT



You cannot post new topics in this forum
You cannot reply to topics in this forum
You cannot edit your posts in this forum
You cannot delete your posts in this forum
You cannot vote in polls in this forum
You cannot attach files in this forum
You cannot download files in this forum