Мертвая тишина / Dead Silence (Джеймс Ван / James Wan) [2007, США, ужасы, триллер, HDRip] [Расширенная версия / Unrated Cut] MVO (R5)

 
Автор Сообщение

painkiller ®

Стаж: 2 года 3 месяца

Сообщений: 582



Награды: Нет

Торрент-статистика

Создавать темы 16-Авг-2014 14:46

[Цитировать]

Мертвая тишина / Dead Silence
Расширенная версия / Unrated Cut

Страна: США
Жанр: ужасы, триллер
Год выпуска: 2007
Продолжительность: 01:31:32
Перевод: Профессиональный (многоголосый закадровый) R5
Cубтитры: нет
Оригинальная аудиодорожка: нет
Режиссер: Джеймс Ван / James Wan
В ролях: Райан Квантен, Эмбер Валлетта, Донни Уолберг, Майкл Фэйрмэн, Джоан Хини, Боб Гантон, Лаура Риган, Дмитрий Чеповецкий, Джудит Анна, Робертс Кейр Гилкрист
Описание: Джэми Эйшен, чья жена, Лиза, недавно трагически погибла при странных обстоятельствах, становится основным подозреваемым в ее убийстве, расследованием которого занимается не в меру усердный детектив Джим Липтон. Герой твердо знает, что он жену не убивал, и потому самолично начинает разматывать клубок тайн, окружающих гибель любимой, взяв в качестве отправной точки куклу чревовещателя, которую женщина получила незадолго до смерти. Дальнейшие поиски приводят Джэми в его родной город, где его ожидает встреча со своим тяжело больным отцом и призрачным воплощением Мэри Шоу – некогда известной чревовещательницы, ныне жаждущей мести и, одновременно, ищущей семейной любви, которой она была лишена при жизни.
Релиз: Scarabey

Качество видео: HDRip
Формат видео: AVI
Видео: 688x288 (2.39:1), 23.976 fps, XviD build 73 ~999 kbps avg, 0.21 bit/pixel
Аудио: 48 kHz, MPEG Layer 3, 2 ch, ~128.00 kbps avg

MediaInfo

General
Complete name : D:\Фильмы\Dead.Silence.2007.UNRATED_HDRip.avi
Format : AVI
Format/Info : Audio Video Interleave
File size : 745 MiB
Duration : 1h 31mn
Overall bit rate : 1 137 Kbps
Writing application : VirtualDubMod 1.5.10.3 | www.virtualdub-fr.org || (build 2550/release)
Writing library : VirtualDubMod build 2550/release
Video
ID : 0
Format : MPEG-4 Visual
Format profile : Advanced Simple@L5
Format settings, BVOP : Yes
Format settings, QPel : No
Format settings, GMC : No warppoints
Format settings, Matrix : Custom
Codec ID : XVID
Codec ID/Hint : XviD
Duration : 1h 31mn
Bit rate : 1 000 Kbps
Width : 688 pixels
Height : 288 pixels
Display aspect ratio : 2.40:1
Frame rate : 23.976 fps
Color space : YUV
Chroma subsampling : 4:2:0
Bit depth : 8 bits
Scan type : Progressive
Compression mode : Lossy
Bits/(Pixel*Frame) : 0.210
Stream size : 655 MiB (88%)
Writing library : XviD 73
Audio
ID : 1
Format : MPEG Audio
Format version : Version 1
Format profile : Layer 3
Codec ID : 55
Codec ID/Hint : MP3
Duration : 1h 31mn
Bit rate mode : Constant
Bit rate : 128 Kbps
Channel(s) : 2 channels
Sampling rate : 48.0 KHz
Compression mode : Lossy
Stream size : 83.8 MiB (11%)
Alignment : Aligned on interleaves
Interleave, duration : 42 ms (1.00 video frame)
Interleave, preload duration : 504 ms
Writing library : LAME3.99r
Encoding settings : -m s -V 4 -q 2 -lowpass 17 -b 128

Скриншоты

[Профиль] [ЛС]

Создавать темы 06-Авг-2015 23:09 (спустя 11 месяцев 21 день)

Топик был перенесен из форума Фильмы до 2014 года в форум Фильмы до 2012 года
sergej644
 
Кто просматривает тему:

Форум Тема Автор Размер
Фильмы 2011 года DOA: Живой или мертвый / DOA: Dead or Alive (2006) BDRip Russian Mafia 1.45 GB
Music from other genres JO-34 и Мертвый груз - Болевое - LP (2014) MP3 sergej644 187 MB
Action Land of the Dead: Road to Fiddler\'s Green / Земля мертвых: Дорога к Фиддлерз Грин [L] [RUS / RUS] (2005) TorrentFilm 990 MB
PBS PBS: Тайны Мертвых. Загадка серебряного фараона / Secrets of the Dead. The Silver Pharaoh [сезон 10 эпизод 1 ] (Энди Вебб / Andy Webb) [2010 г., Документальный, научно-познавательный, и... skorpionN 1.31 GB
PBS PBS: Тайны Мертвых. Затерянный в Амазонке / Secrets of the Dead. Lost in the Amazon [сезон 11 эпизод 1 ] (Петер Вон Путткамер / Peter Von Puttkamer) [2011 г., Документальный, познавательный, история,... skorpionN 1.47 GB
PBS PBS: Тайны Мертвых. Потерянные воины Карфагена / Secrets of the Dead. Carthage's lost Warriors (Майкл Грегор / Michael Gregor) [2014 г., Документальный, исследование, история, HDTVRip 720p] skorpionN 897 MB
PBS PBS: Тайны Мертвых. Потерянные корабли Древнего Рима / Secrets of the Dead. Lost Ships of Rome [сезон 10 эпизод 3 ] (Роберт Хатэл / Robert Hartel) [2010 г., Документальный, исследование, история,... skorpionN 1.57 GB
PBS PBS: Тайны Мертвых. Человек, который спас мир / Secrets of the Dead. The Man Who Saved the World [сезон 12 эпизод 1] (Ник Грин / Nick Green) [2012 г., Документальный, история, HDTVRip 720p] skorpionN 1.43 GB
Показать сообщения:    

Текущее время: Сегодня 15:59

Часовой пояс: GMT



Вы не можете начинать темы
Вы не можете отвечать на сообщения
Вы не можете редактировать свои сообщения
Вы не можете удалять свои сообщения
Вы не можете голосовать в опросах
Вы не можете прикреплять файлы к сообщениям
Вы не можете скачивать файлы