Мертвая Зона / The Dead Zone (1983) BDRip 720p от MediaClub | P, P2, A, L1

 
Автор Сообщение

sergej644 ®

Пол:

Стаж: 4 года 11 месяцев

Сообщений: 6046

Откуда: Soviet Union



Награды: Нет

Торрент-статистика

Создавать темы 13-Ноя-2014 10:17

[Цитировать]

Информация о фильме
Название: Мертвая Зона
Оригинальное название: The Dead Zone
Год выпуска: 1983
Жанр: Драма, фэнтези, триллер, экранизация
Режиссер: Дэвид Кроненберг
В ролях: Кристофер Уокен, Брук Адамс, Том Скерритт, Херберт Лом, Энтони Зербе, Коллин Дьюхёрст, Мартин Шин, Николас Кэмпбелл, Шон Салливан, Джеки Барроуз
Описание: Экранизация одноименного романа Стивена Кинга. Возвращаясь с прогулки на машине, со своей девушкой, преподователь литературы Джон Смит попадает в аварию. В течении пяти лет, после катастрофы он пребывает в коме. Пять потерянных лет. Но, придя в себя, он приобретает сверхъестественные способности, которыми обладают лишь экстрасенсы - дар предсказывать катастрофы и судьбы людей. Его уникальными возможностями вначале интересуются полиция, а затем и политики большого ранга. И вскоре выяснилось, что только Джон Смит может остановить неразборчивого в средствах политика, рвущегося к власти...

Выпущено: США / Dino De Laurentiis Company, Lorimar Film Entertainment
Продолжительность: 01:43:44
Перевод: Профессиональный многоголосый, профессиональный двухголосый, авторский, любительский одноголосый
Файл
Качество: BDRip 720p
Видео: MPEG-4 AVC, 8200 Кбит/с, 1280x720, 23.976 кадр/с
Аудио #1: Русский (AC3, 6 ch, 448 Кбит/с) / Профессиональный многоголосый (Позитив-Мультимедиа)
Аудио #2: Русский (AC3, 2 ch, 192 Кбит/с) / Профессиональный многоголосый (ТВ-3)
Аудио #3: Русский (AC3, 6 ch, 448 Кбит/с) / Профессиональный двухголосый (CP-Digital)
Аудио #4: Русский (AC3, 6 ch, 448 Кбит/с) / Авторский одноголосый (Живов)
Аудио #5: Русский (AC3, 2 ch, 192 Кбит/с) / Авторский одноголосый (Михалев)
Аудио #6: Русский (AC3, 2 ch, 192 Кбит/с) / Авторский одноголосый (Сербин)
Аудио #7: Русский (AC3, 2 ch, 192 Кбит/с) / Авторский одноголосый (Товбин)
Аудио #8: Русский (AC3, 2 ch, 192 Кбит/с) / Любительский одноголосый (Ужастик)
Аудио #9: Английский (AC3, 6 ch, 448 Кбит/с)
Субтитры: Русские, английские
Семпл

Скриншоты

О релизе

За исходник спасибо: HDTracker

MI

x264 [info]: frame I:1010  Avg QP:16.57  size:164365
x264 [info]: frame P:30067 Avg QP:19.12  size: 73299
x264 [info]: frame B:118134 Avg QP:21.16  size: 33914
x264 [info]: consecutive B-frames:  1.1%  2.0%  4.9% 21.2% 14.6% 41.9%  6.9%  6.5%  0.3%  0.2%  0.1%  0.2%  0.1%
*********************************************************************************************************************************
Общее
Уникальный идентификатор                 : 188123356994690014889115710407807159107 (0x8D873D9B129F970889FDB8FAF32D4B43)
Полное имя                               : D:Mои раздачиMertvaya.zona.1983.BDRip.720p-MediaClub.mkv
Формат                                   : Matroska
Версия формата                           : Version 4 / Version 2
Размер файла                             : 7,94 Гбайт
Продолжительность                        : 1 ч. 43 м.
Общий поток                              : 11,0 Мбит/сек
Название фильма                          : -=MediaClub-kaspr=-
Дата кодирования                         : UTC 2014-11-12 19:16:36
Программа кодирования                    : mkvmerge v6.9.1 ('Blue Panther') 64bit built on Apr 18 2014 18:23:38
Библиотека кодирования                   : libebml v1.3.0 + libmatroska v1.4.1
Видео
Идентификатор                            : 1
Формат                                   : AVC
Формат/Информация                        : Advanced Video Codec
Профиль формата                          : High@L4.1
Параметр CABAC формата                   : Да
Параметр ReFrames формата                : 9 кадров
Идентификатор кодека                     : V_MPEG4/ISO/AVC
Продолжительность                        : 1 ч. 43 м.
Битрейт                                  : 8200 Кбит/сек
Ширина                                   : 1280 пикселей
Высота                                   : 720 пикселей
Соотношение сторон                       : 16:9
Режим частоты кадров                     : Постоянный
Частота кадров                           : 23,976 кадра/сек
Цветовое пространство                    : YUV
Субдискретизация насыщенности            : 4:2:0
Битовая глубина                          : 8 бит
Тип развёртки                            : Прогрессивная
Бит/(Пиксели*Кадры)                      : 0.371
Размер потока                            : 5,78 Гбайт (73%)
Заголовок                                : -=MediaClub-kaspr=-
Библиотека кодирования                   : x264 core 142 r2431+42 c69a006 tMod [8-bit@4:2:0 X86_64]
Настройки программы                      : cabac=1 / ref=9 / deblock=1:-3:-3 / analyse=0x3:0x113 / me=umh / subme=11 / psy=1 / fade_compensate=0.00 / psy_rd=1.00:0.00 / mixed_ref=1 / me_range=32 / chroma_me=1 / trellis=2 / 8x8dct=1 / cqm=0 / deadzone=21,11 / fast_pskip=0 / chroma_qp_offset=-2 / threads=12 / lookahead_threads=3 / sliced_threads=0 / nr=0 / decimate=0 / interlaced=0 / bluray_compat=0 / constrained_intra=0 / fgo=0 / bframes=12 / b_pyramid=2 / b_adapt=2 / b_bias=0 / direct=3 / weightb=1 / open_gop=0 / weightp=2 / keyint=240 / keyint_min=23 / scenecut=40 / intra_refresh=0 / rc=2pass / mbtree=0 / bitrate=8200 / ratetol=1.0 / qcomp=0.60 / qpmin=0:0:0 / qpmax=69:69:69 / qpstep=4 / cplxblur=20.0 / qblur=0.5 / ip_ratio=1.40 / pb_ratio=1.30 / aq=4:0.80 / aq-sensitivity=10.00 / aq-factor=1.00:1.00:1.00 / aq2=0 / aq3=0
Default                                  : Да
Forced                                   : Нет
Аудио #1
Идентификатор                            : 2
Формат                                   : AC-3
Формат/Информация                        : Audio Coding 3
Расширение режима                        : CM (complete main)
Параметр Endianness формата              : Big
Идентификатор кодека                     : A_AC3
Продолжительность                        : 1 ч. 43 м.
Вид битрейта                             : Постоянный
Битрейт                                  : 448 Кбит/сек
Каналы                                   : 6 каналов
Расположение каналов                     : Front: L C R, Side: L R, LFE
Частота                                  : 48,0 КГц
Битовая глубина                          : 16 бит
Метод сжатия                             : С потерями
Размер потока                            : 332 Мбайт (4%)
Заголовок                                : MVO (Позитив)
Язык                                     : Russian
Default                                  : Да
Forced                                   : Нет
Аудио #2
Идентификатор                            : 3
Формат                                   : AC-3
Формат/Информация                        : Audio Coding 3
Расширение режима                        : CM (complete main)
Параметр Endianness формата              : Big
Идентификатор кодека                     : A_AC3
Продолжительность                        : 1 ч. 43 м.
Вид битрейта                             : Постоянный
Битрейт                                  : 192 Кбит/сек
Каналы                                   : 2 канала
Расположение каналов                     : Front: L R
Частота                                  : 48,0 КГц
Битовая глубина                          : 16 бит
Метод сжатия                             : С потерями
Размер потока                            : 142 Мбайт (2%)
Заголовок                                : MVO (ТВ-3)
Язык                                     : Russian
Default                                  : Нет
Forced                                   : Нет
Аудио #3
Идентификатор                            : 4
Формат                                   : AC-3
Формат/Информация                        : Audio Coding 3
Расширение режима                        : CM (complete main)
Параметр Endianness формата              : Big
Идентификатор кодека                     : A_AC3
Продолжительность                        : 1 ч. 43 м.
Вид битрейта                             : Постоянный
Битрейт                                  : 448 Кбит/сек
Каналы                                   : 6 каналов
Расположение каналов                     : Front: L C R, Side: L R, LFE
Частота                                  : 48,0 КГц
Битовая глубина                          : 16 бит
Метод сжатия                             : С потерями
Размер потока                            : 332 Мбайт (4%)
Заголовок                                : DVO (CP-Digital)
Язык                                     : Russian
Default                                  : Нет
Forced                                   : Нет
Аудио #4
Идентификатор                            : 5
Формат                                   : AC-3
Формат/Информация                        : Audio Coding 3
Расширение режима                        : CM (complete main)
Параметр Endianness формата              : Big
Идентификатор кодека                     : A_AC3
Продолжительность                        : 1 ч. 43 м.
Вид битрейта                             : Постоянный
Битрейт                                  : 448 Кбит/сек
Каналы                                   : 6 каналов
Расположение каналов                     : Front: L C R, Side: L R, LFE
Частота                                  : 48,0 КГц
Битовая глубина                          : 16 бит
Метод сжатия                             : С потерями
Размер потока                            : 332 Мбайт (4%)
Заголовок                                : Живов
Язык                                     : Russian
Default                                  : Нет
Forced                                   : Нет
Аудио #5
Идентификатор                            : 6
Формат                                   : AC-3
Формат/Информация                        : Audio Coding 3
Расширение режима                        : CM (complete main)
Параметр Endianness формата              : Big
Идентификатор кодека                     : A_AC3
Продолжительность                        : 1 ч. 43 м.
Вид битрейта                             : Постоянный
Битрейт                                  : 192 Кбит/сек
Каналы                                   : 2 канала
Расположение каналов                     : Front: L R
Частота                                  : 48,0 КГц
Битовая глубина                          : 16 бит
Метод сжатия                             : С потерями
Размер потока                            : 142 Мбайт (2%)
Заголовок                                : Михалев
Язык                                     : Russian
Default                                  : Нет
Forced                                   : Нет
Аудио #6
Идентификатор                            : 7
Формат                                   : AC-3
Формат/Информация                        : Audio Coding 3
Расширение режима                        : CM (complete main)
Параметр Endianness формата              : Big
Идентификатор кодека                     : A_AC3
Продолжительность                        : 1 ч. 43 м.
Вид битрейта                             : Постоянный
Битрейт                                  : 192 Кбит/сек
Каналы                                   : 2 канала
Расположение каналов                     : Front: L R
Частота                                  : 48,0 КГц
Битовая глубина                          : 16 бит
Метод сжатия                             : С потерями
Размер потока                            : 142 Мбайт (2%)
Заголовок                                : Сербин
Язык                                     : Russian
Default                                  : Нет
Forced                                   : Нет
Аудио #7
Идентификатор                            : 8
Формат                                   : AC-3
Формат/Информация                        : Audio Coding 3
Расширение режима                        : CM (complete main)
Параметр Endianness формата              : Big
Идентификатор кодека                     : A_AC3
Продолжительность                        : 1 ч. 43 м.
Вид битрейта                             : Постоянный
Битрейт                                  : 192 Кбит/сек
Каналы                                   : 2 канала
Расположение каналов                     : Front: L R
Частота                                  : 48,0 КГц
Битовая глубина                          : 16 бит
Метод сжатия                             : С потерями
Размер потока                            : 142 Мбайт (2%)
Заголовок                                : Товбин
Язык                                     : Russian
Default                                  : Нет
Forced                                   : Нет
Аудио #8
Идентификатор                            : 9
Формат                                   : AC-3
Формат/Информация                        : Audio Coding 3
Расширение режима                        : CM (complete main)
Параметр Endianness формата              : Big
Идентификатор кодека                     : A_AC3
Продолжительность                        : 1 ч. 43 м.
Вид битрейта                             : Постоянный
Битрейт                                  : 192 Кбит/сек
Каналы                                   : 2 канала
Расположение каналов                     : Front: L R
Частота                                  : 48,0 КГц
Битовая глубина                          : 16 бит
Метод сжатия                             : С потерями
Размер потока                            : 142 Мбайт (2%)
Заголовок                                : Ужастик
Язык                                     : Russian
Default                                  : Нет
Forced                                   : Нет
Аудио #9
Идентификатор                            : 10
Формат                                   : AC-3
Формат/Информация                        : Audio Coding 3
Расширение режима                        : CM (complete main)
Параметр Endianness формата              : Big
Идентификатор кодека                     : A_AC3
Продолжительность                        : 1 ч. 43 м.
Вид битрейта                             : Постоянный
Битрейт                                  : 448 Кбит/сек
Каналы                                   : 6 каналов
Расположение каналов                     : Front: L C R, Side: L R, LFE
Частота                                  : 48,0 КГц
Битовая глубина                          : 16 бит
Метод сжатия                             : С потерями
Размер потока                            : 332 Мбайт (4%)
Язык                                     : English
Default                                  : Нет
Forced                                   : Нет
Текст #1
Идентификатор                            : 11
Формат                                   : UTF-8
Идентификатор кодека                     : S_TEXT/UTF8
Идентификатор кодека/Информация          : UTF-8 Plain Text
Язык                                     : Russian
Default                                  : Нет
Forced                                   : Нет
Текст #2
Идентификатор                            : 12
Формат                                   : UTF-8
Идентификатор кодека                     : S_TEXT/UTF8
Идентификатор кодека/Информация          : UTF-8 Plain Text
Язык                                     : English
Default                                  : Нет
Forced                                   : Нет
Меню
00:00:00.000                             : en:Chapter 01
00:00:00.375                             : en:Chapter 02
00:16:49.842                             : en:Chapter 03
00:34:55.093                             : en:Chapter 04
00:50:51.131                             : en:Chapter 05
01:09:55.941                             : en:Chapter 06
01:28:13.037                             : en:Chapter 07
Релиз: |
[Профиль] [ЛС]
Кто просматривает тему:

Форум Тема Автор Размер
Фильмы 2011 года DOA: Живой или мертвый / DOA: Dead or Alive (2006) BDRip Russian Mafia 1.45 GB
Music from other genres JO-34 и Мертвый груз - Болевое - LP (2014) MP3 sergej644 187 MB
Action Land of the Dead: Road to Fiddler\'s Green / Земля мертвых: Дорога к Фиддлерз Грин [L] [RUS / RUS] (2005) TorrentFilm 990 MB
PBS PBS: Тайны Мертвых. Загадка серебряного фараона / Secrets of the Dead. The Silver Pharaoh [сезон 10 эпизод 1 ] (Энди Вебб / Andy Webb) [2010 г., Документальный, научно-познавательный, и... skorpionN 1.31 GB
PBS PBS: Тайны Мертвых. Затерянный в Амазонке / Secrets of the Dead. Lost in the Amazon [сезон 11 эпизод 1 ] (Петер Вон Путткамер / Peter Von Puttkamer) [2011 г., Документальный, познавательный, история,... skorpionN 1.47 GB
PBS PBS: Тайны Мертвых. Потерянные воины Карфагена / Secrets of the Dead. Carthage's lost Warriors (Майкл Грегор / Michael Gregor) [2014 г., Документальный, исследование, история, HDTVRip 720p] skorpionN 897 MB
PBS PBS: Тайны Мертвых. Потерянные корабли Древнего Рима / Secrets of the Dead. Lost Ships of Rome [сезон 10 эпизод 3 ] (Роберт Хатэл / Robert Hartel) [2010 г., Документальный, исследование, история,... skorpionN 1.57 GB
PBS PBS: Тайны Мертвых. Человек, который спас мир / Secrets of the Dead. The Man Who Saved the World [сезон 12 эпизод 1] (Ник Грин / Nick Green) [2012 г., Документальный, история, HDTVRip 720p] skorpionN 1.43 GB
Показать сообщения:    

Текущее время: Сегодня 14:06

Часовой пояс: GMT



Вы не можете начинать темы
Вы не можете отвечать на сообщения
Вы не можете редактировать свои сообщения
Вы не можете удалять свои сообщения
Вы не можете голосовать в опросах
Вы не можете прикреплять файлы к сообщениям
Вы не можете скачивать файлы