Менялы (Георгий Шенгелия)[1992, комедия, DVDRip]

 
Автор Сообщение

sergej644 ®

Пол:

Стаж: 4 года 11 месяцев

Сообщений: 6046

Откуда: Soviet Union



Награды: Нет

Торрент-статистика

Создавать темы 22-Фев-2015 11:18

[Цитировать]

Страна: Россия, США
Производство: 12А, TWELVE L.A. Inc., СЛАВУТИЧ
Жанр: комедия
Год выпуска: 1992
Продолжительность: 01:28:25
Перевод: Не требуется
Cубтитры: нет
Оригинальная аудиодорожка: русский
Режиссер: Георгий Шенгелия
В ролях:
Владимир Ильин, Андрей Пономарев, Вадим Захарченко, Юрий Горин, Валентина Теличкина, Оксана Мысина, Ренат Давлетьяров, Наиль Идрисов, Олег Дурыгин, Алла Мещерякова...
Описание:
Остроумная, остросюжетная комедия рассказывает об «авантюре времен денежной реформы» 1961 года, когда «весь многомиллионный советский народ» запустил в космос Гагарина, а иностранцы, «не раздумывая, меняли один американский доллар на 65 советских копеек». «Всего лишь 20 лет отделяли тогда наш народ от светлой эры всего человечества», а два человека тем временем, по заданию подпольного миллионера, сомневающегося в отмене денег при коммунизме, занимались тем, что меняли деньги на медные монеты. Почему? Попробуйте догадаться сами, а не догадаетесь — посмотрите.- -Источник: DVD5 R5
Качество видео: DVDRip
Формат видео: AVI
Видео: 688x512 (4:3), 25 fps, XviD ~ 2151 kbps avg, 0.244 bit/pixel
Аудио: 48 kHz, Dolby Digital AC3 2.0, 192 kbps

MediaInfo

Общее
Полное имя                               : Menyaly.1992.DVDRip_[New-team]_by_AVP_Studio.avi
Формат                                   : AVI
Формат/Информация                        : Audio Video Interleave
Размер файла                             : 1,45 Гбайт
Продолжительность                        : 1 ч. 28 м.
Общий поток                              : 2352 Кбит/сек
Программа кодирования                    : VirtualDubModRus 1.5.10.2 (build 2542/release)
Библиотека кодирования                   : VirtualDubMod build 2542/release
Видео
Идентификатор                            : 0
Формат                                   : MPEG-4 Visual
Профиль формата                          : Advanced Simple@L5
Параметр BVOP формата                    : 1
Параметр QPel формата                    : Нет
Параметр GMC формата                     : Без точки перехода
Параметр матрицы формата                 : Выборочная
Идентификатор кодека                     : XVID
Идентификатор кодека/Подсказка           : XviD
Продолжительность                        : 1 ч. 28 м.
Битрейт                                  : 2151 Кбит/сек
Ширина                                   : 688 пикселей
Высота                                   : 512 пикселей
Соотношение сторон                       : 4:3
Частота кадров                           : 25,000 кадров/сек
Цветовое пространство                    : YUV
Субдискретизация насыщенности            : 4:2:0
Битовая глубина                          : 8 бит
Тип развёртки                            : Прогрессивная
Метод сжатия                             : С потерями
Бит/(Пиксели*Кадры)                      : 0.244
Размер потока                            : 1,33 Гбайт (91%)
Библиотека кодирования                   : XviD 73
Аудио
Идентификатор                            : 1
Формат                                   : AC-3
Формат/Информация                        : Audio Coding 3
Расширение режима                        : CM (complete main)
Параметр Endianness формата              : Big
Идентификатор кодека                     : 2000
Продолжительность                        : 1 ч. 28 м.
Вид битрейта                             : Постоянный
Битрейт                                  : 192 Кбит/сек
Каналы                                   : 2 канала
Расположение каналов                     : Front: L R
Частота                                  : 48,0 КГц
Битовая глубина                          : 16 бит
Метод сжатия                             : С потерями
Размер потока                            : 121 Мбайт (8%)
Выравнивание                             : Разделение по промежуткам
Продолжительность промежутка             : 40  мс. (1,00 видеокадр)
Время предзагрузки промежутка            : 500  мс

Скриншоты

[Профиль] [ЛС]

Создавать темы 06-Авг-2015 22:17 (спустя 5 месяцев 12 дней)

Топик был перенесен из форума Фильмы до 2014 года в форум Фильмы до 2012 года
sergej644
 
Кто просматривает тему:

Форум Тема Автор Размер
Фильмы (DVD 5/9) Менялы (Георгий Шенгелия) [1992, Россия, авантюрная комедия, DVD5] TorrentFilm 3.77 GB
Показать сообщения:    

Текущее время: Сегодня 15:35

Часовой пояс: GMT



Вы не можете начинать темы
Вы не можете отвечать на сообщения
Вы не можете редактировать свои сообщения
Вы не можете удалять свои сообщения
Вы не можете голосовать в опросах
Вы не можете прикреплять файлы к сообщениям
Вы не можете скачивать файлы