Меморандум Квиллера / The Quiller Memorandum (1966) BDRip 1080p от MediaClub | P

 
Автор Сообщение

Russian Mafia ®

Пол:

Стаж: 1 год 8 месяцев

Сообщений: 4247



Награды: 10 (Подробнее)

Top Releaser 3 (Количество: 1) Mega Seeder 2 (Количество: 1) Top Releaser 5 (Количество: 1)
Торрент-статистика

Создавать темы 26-Авг-2016 18:48

[Цитировать]

Информация о фильме
Название: Меморандум Квиллера
Оригинальное название: The Quiller Memorandum
Год выхода: 1966
Жанр: Триллер, драма, криминал, детектив, экранизация
Режиссер: Майкл Андерсон
В ролях: Джордж Сигал, Алек Гиннесс, Макс фон Сюдов, Зента Бергер, Джордж Сэндерс, Роберт Хелпманн, Роберт Флеминг, Петер Карстен, Эрнст Уолдер, Эдит Шнайдер, Филип Мэдок, Гюнтер Майснер, Джон Рис, Виктор Бомонт, Гарри Брукс мл.
О фильме:
Хороший сценарий - залог успеха картины. Сценарист Харольд Пинтер сделал это очень хорошо. А режиссер Майкл Андерсон снял фильм, который стал одним из лучших шпионских триллеров тех лет. В Западный Берлин начала 60-х годов, где погибают два британских разведчика, направлен агент секретной службы Квиллер (Джордж Сигал). Его задача - выявить местонахождение базы группы неонацистов. Квиллер, не доверяющий никому, даже своим, выходит на след группы и вступает в противостояние с ее руководителем, по имени Октобер (Макс фон Сюдов). Задача последнего - выйти на начальника Квиллера, известного как «Пол». Шпионский триллер "Меморандум Квиллера" с большим успехом демонстрировался в советском кинопрокате. В основу положен захватывающий роман "Берлинский меморандум" Эллестона Тревора (написанный под псевдонимом Адама Холла).
Страна: США, Великобритания
Студия: Ivan Foxwell Productions Ltd., The Rank Organisation Film Productions Ltd.
Продолжительность: 01:44:50
Перевод: Профессиональный многоголосый закадровый
Файл
Кодек: h.264
Качество: BDRip 1080p
Видео: MPEG-4 AVC, 17500 Кбит/с, 1920x816, 24.000 кадр/с
Звук:
Русский (AC3, 2 ch, 192 Кбит/с) / Профессиональный многоголосый (Фильм-экспорт)
Английский (AC3, 2 ch, 640 Кбит/с)
Семпл

О релизе

Автор релиза - Silverok, За BDRemux спасибо Spielllberg

MI

General
Unique ID : 207442942229908748139270371001659222330 (0x9C100EB306F24041874D512ECA42E93A)
Complete name : D:uTorrentMemorandum.Kvillera.1966.BDRip.1080p.MediaClub.mkv
Format : Matroska
Format version : Version 4 / Version 2
File size : 13.4 GiB
Duration : 1 h 44 min
Overall bit rate : 18.4 Mb/s
Encoded date : UTC 2016-08-26 15:34:31
Writing application : mkvmerge v9.3.1 ('Mask Machine') 64bit
Writing library : libebml v1.3.4 + libmatroska v1.4.5
Video
ID : 1
Format : AVC
Format/Info : Advanced Video Codec
Format profile : High@L4.1
Format settings, CABAC : Yes
Format settings, ReFrames : 5 frames
Codec ID : V_MPEG4/ISO/AVC
Duration : 1 h 44 min
Bit rate : 17.5 Mb/s
Width : 1 920 pixels
Height : 816 pixels
Display aspect ratio : 2.35:1
Frame rate mode : Constant
Frame rate : 24.000 FPS
Color space : YUV
Chroma subsampling : 4:2:0
Bit depth : 8 bits
Scan type : Progressive
Bits/(Pixel*Frame) : 0.466
Stream size : 12.8 GiB (95%)
Title : BDRip by Silverok
Writing library : x264 core 148 r2638 7599210
Encoding settings : cabac=1 / ref=5 / deblock=1:-3:-3 / analyse=0x3:0x113 / me=umh / subme=11 / psy=1 / psy_rd=1.00:0.10 / mixed_ref=1 / me_range=48 / chroma_me=1 / trellis=2 / 8x8dct=1 / cqm=0 / deadzone=21,11 / fast_pskip=0 / chroma_qp_offset=-3 / threads=12 / lookahead_threads=3 / sliced_threads=0 / nr=0 / decimate=0 / interlaced=0 / bluray_compat=0 / constrained_intra=0 / bframes=12 / b_pyramid=2 / b_adapt=2 / b_bias=0 / direct=3 / weightb=1 / open_gop=0 / weightp=2 / keyint=240 / keyint_min=24 / scenecut=40 / intra_refresh=0 / rc=2pass / mbtree=0 / bitrate=17531 / ratetol=1.0 / qcomp=0.60 / qpmin=0 / qpmax=69 / qpstep=4 / cplxblur=20.0 / qblur=0.5 / ip_ratio=1.40 / pb_ratio=1.30 / aq=1:1.00
Default : Yes
Forced : No
Audio #1
ID : 2
Format : AC-3
Format/Info : Audio Coding 3
Mode extension : CM (complete main)
Format settings, Endianness : Big
Codec ID : A_AC3
Duration : 1 h 44 min
Bit rate mode : Constant
Bit rate : 192 kb/s
Channel(s) : 2 channels
Channel positions : Front: L R
Sampling rate : 48.0 kHz
Frame rate : 31.250 FPS (1536 spf)
Compression mode : Lossy
Stream size : 144 MiB (1%)
Title : Профессиональный многоголосый закадровый (Фильм-экспорт)
Language : Russian
Default : Yes
Forced : No
Audio #2
ID : 3
Format : AC-3
Format/Info : Audio Coding 3
Mode extension : CM (complete main)
Format settings, Endianness : Big
Codec ID : A_AC3
Duration : 1 h 44 min
Bit rate mode : Constant
Bit rate : 640 kb/s
Channel(s) : 2 channels
Channel positions : Front: L R
Sampling rate : 48.0 kHz
Frame rate : 31.250 FPS (1536 spf)
Compression mode : Lossy
Stream size : 480 MiB (3%)
Language : English
Default : No
Forced : No

Скриншоты

[Профиль] [ЛС]
Показать сообщения:    

Текущее время: Сегодня 14:33

Часовой пояс: GMT



Вы не можете начинать темы
Вы не можете отвечать на сообщения
Вы не можете редактировать свои сообщения
Вы не можете удалять свои сообщения
Вы не можете голосовать в опросах
Вы не можете прикреплять файлы к сообщениям
Вы не можете скачивать файлы