Мелодия на два голоса [01-02 из 02] (2015) HDTVRip

 
Автор Сообщение

BOSS ®

Пол:

Стаж: 2 года 1 месяц

Сообщений: 3735

Откуда: ODESSA



Награды: 20 (Подробнее)

Top Keeper 4 (Количество: 1) Top Keeper 1 (Количество: 1) Mega Seeder 3 (Количество: 1)
Торрент-статистика

Создавать темы 17-Окт-2015 19:08

[Цитировать]

Информация о фильме
Название: Мелодия на два голоса
Год выхода: 2015
Жанр: Мелодрама, мини-сериал
Режиссер: Сергей Мезенцев
В ролях: Олеся Фаттахова, Евгений Шириков, Иван Шабалтас, Татьяна Лютаева, Владислав Ветров, Кирилл Запорожский, Наталья Чернявская, Агата Муцениеце
О фильме:
Ирина и Сергей знакомятся друг с другом не в лучший для них обоих день: их встреча происходит в загсе, где они оба оформляют развод со своими вторыми половинами...Ирина - дочь успешного и известного в городе бизнесмена Романа Алексеевича Кудряшова. Привыкшая к роскоши и достатку, она остаётся доброй и скромной девушкой. После окончания института Ирина выбирает для себя нелегкую работу акушера в роддоме.Сергей - парень из простой семьи. Своей головой и своим трудом он добился хорошего образования и интересной работы.Любовь, захлестнувшая Ирину и Сергея, даёт им обоим надежду на счастье. Они решают быть вместе и им не терпится познакомить друг с другом своих родителей. Но неожиданно для молодых это знакомство оборачивается катастрофой...

Страна: Россия
Студия: Кинокомпания Русское
Продолжительность: 01:29:58+01:28:13
Перевод: Не требуется
Файл
Кодек: XviD
Качество: HDTVRip
Видео: 624x352 (1.77:1), 25 fps, XviD build 73 ~1020 kbps avg, 0.19 bit/pixel
Звук: 48 kHz, MPEG Layer 3, 2 ch, ~128.00 kbps avg
Субтитры: Отсутствует
Семпл Сэмпл2

MI

General
Complete name : D:Изготовление риповMelodija.na.dva.golosa.(02.seriya.iz.02).2015.HDTVRip.shkiperMelodija.na.dva.golosa.(01.seriya.iz.02).2015.HDTVRip.shkiper.avi
Format : AVI
Format/Info : Audio Video Interleave
File size : 746 MiB
Duration : 1h 29mn
Overall bit rate : 1 159 Kbps
Writing application : VirtualDubMod 1.5.10.3 | www.virtualdub-fr.org || (build 2550/release)
Writing library : VirtualDubMod build 2550/release
Video
ID : 0
Format : MPEG-4 Visual
Format profile : Advanced Simple@L5
Format settings, BVOP : 1
Format settings, QPel : No
Format settings, GMC : No warppoints
Format settings, Matrix : Custom
Codec ID : XVID
Codec ID/Hint : XviD
Duration : 1h 29mn
Bit rate : 1 021 Kbps
Width : 624 pixels
Height : 352 pixels
Display aspect ratio : 16:9
Frame rate : 25.000 fps
Color space : YUV
Chroma subsampling : 4:2:0
Bit depth : 8 bits
Scan type : Progressive
Compression mode : Lossy
Bits/(Pixel*Frame) : 0.186
Stream size : 657 MiB (88%)
Writing library : XviD 73
Audio
ID : 1
Format : MPEG Audio
Format version : Version 1
Format profile : Layer 3
Mode : Joint stereo
Mode extension : MS Stereo
Codec ID : 55
Codec ID/Hint : MP3
Duration : 1h 29mn
Bit rate mode : Constant
Bit rate : 128 Kbps
Channel(s) : 2 channels
Sampling rate : 48.0 KHz
Compression mode : Lossy
Stream size : 82.4 MiB (11%)
Alignment : Aligned on interleaves
Interleave, duration : 40 ms (1.00 video frame)
Interleave, preload duratio : 504 ms
Writing library : LAME3.99r
Encoding settings : -m j -V 4 -q 2 -lowpass 17 -b 128
****************************************************************
General
Complete name : D:Изготовление риповMelodija.na.dva.golosa.(02.seriya.iz.02).2015.HDTVRip.shkiperMelodija.na.dva.golosa.(02.seriya.iz.02).2015.HDTVRip.shkiper.avi
Format : AVI
Format/Info : Audio Video Interleave
File size : 745 MiB
Duration : 1h 28mn
Overall bit rate : 1 181 Kbps
Writing application : VirtualDubMod 1.5.10.3 | www.virtualdub-fr.org || (build 2550/release)
Writing library : VirtualDubMod build 2550/release
Video
ID : 0
Format : MPEG-4 Visual
Format profile : Advanced Simple@L5
Format settings, BVOP : 1
Format settings, QPel : No
Format settings, GMC : No warppoints
Format settings, Matrix : Custom
Codec ID : XVID
Codec ID/Hint : XviD
Duration : 1h 28mn
Bit rate : 1 043 Kbps
Width : 624 pixels
Height : 352 pixels
Display aspect ratio : 16:9
Frame rate : 25.000 fps
Color space : YUV
Chroma subsampling : 4:2:0
Bit depth : 8 bits
Scan type : Progressive
Compression mode : Lossy
Bits/(Pixel*Frame) : 0.190
Stream size : 658 MiB (88%)
Writing library : XviD 73
Audio
ID : 1
Format : MPEG Audio
Format version : Version 1
Format profile : Layer 3
Mode : Joint stereo
Mode extension : MS Stereo
Codec ID : 55
Codec ID/Hint : MP3
Duration : 1h 28mn
Bit rate mode : Constant
Bit rate : 128 Kbps
Channel(s) : 2 channels
Sampling rate : 48.0 KHz
Compression mode : Lossy
Stream size : 80.8 MiB (11%)
Alignment : Aligned on interleaves
Interleave, duration : 40 ms (1.00 video frame)
Interleave, preload duratio : 504 ms
Writing library : LAME3.99r
Encoding settings : -m j -V 4 -q 2 -lowpass 17 -b 128

Скриншоты

[Профиль] [ЛС]
Показать сообщения:    

Текущее время: Сегодня 10:47

Часовой пояс: GMT



Вы не можете начинать темы
Вы не можете отвечать на сообщения
Вы не можете редактировать свои сообщения
Вы не можете удалять свои сообщения
Вы не можете голосовать в опросах
Вы не можете прикреплять файлы к сообщениям
Вы не можете скачивать файлы