Мелкая / Little (2019) BDRip | iTunes

 
Author Message

BOSS ®

Gender:

Longevity: 4 years 11 months

Posts: 14173

Location: ODESSA



: 22 ()

Top Keeper 1 (1) Mega Seeder 2 (1) Top Seeder 4 (1)
Торрент-статистика

Post 02-Sep-2019 17:01

[Quote]

Информация о фильме
Название: Мелкая
Оригинальное название: Little
Год выхода: 2019
Жанр: Фэнтези, мелодрама, комедия
Страна: США
Перевод: Дублированный | iTunes
Продолжительность: 01:48:47
Режиссер: Тина Гордон Чизм
В ролях: Реджина Холл, Исса Рэй, Марсаи Мартин, Джастин Хартли, Трэйси Эллис Росс, Тони Белл, Мики Дэй, Джейдон Маккрэри, Такер Мик, Талия Тран и др.
О фильме: Главная героиня, властный босс компании, однажды просыпается ребенком. Начинаются веселье и шутки, поскольку героине надо провернуть важную сделку.

Файл
Формат: AVI
Качество: BDRip | Little.2019.1080p.BluRay.REMUX.AVC.DTS-HD.MA.5.1-FGT
Видео: Xvid 73, 704x384, ~1518 kbps, 23,976 fps
Звук: русский, AC3, 5.1 ch, 48 kHz, 384 kbps | iTunes
Субтитры: русские (форс. вшитые)

MI

Общее
Полное имя : G:Torrent2MelkayaBDRip.avi
Формат : AVI
Формат/Информация : Audio Video Interleave
Профиль формата : OpenDML
Размер файла : 1,45 Гбайт
Продолжительность : 1 ч. 48 м.
Общий поток : 1914 Кбит/сек
Программа кодирования : XviD4PSP 6.0 / 53.6.0
Видео
Идентификатор : 0
Формат : MPEG-4 Visual
Профиль формата : Advanced Simple@L5
Настройки формата : BVOP1 / Custom Matrix
Параметр BVOP формата : 1
Параметр QPel формата : Нет
Параметр GMC формата : Без точки перехода
Параметр матрицы формата : Выборочная
Идентификатор кодека : XVID
Идентификатор кодека/Подсказка : XviD
Продолжительность : 1 ч. 48 м.
Битрейт : 1518 Кбит/сек
Ширина : 704 пикселя
Высота : 384 пикселя
Соотношение сторон : 1,85:1
Частота кадров : 23,976 (23976/1000) кадра/сек
Цветовое пространство : YUV
Субдискретизация насыщенности : 4:2:0
Битовая глубина : 8 бит
Тип развёртки : Прогрессивная
Метод сжатия : С потерями
Бит/(Пиксели*Кадры) : 0.234
Размер потока : 1,15 Гбайт (79%)
Библиотека кодирования : XviD 73
Аудио
Идентификатор : 1
Формат : AC-3
Формат/Информация : Audio Coding 3
Параметр Endianness формата : Big
Идентификатор кодека : 2000
Продолжительность : 1 ч. 48 м.
Вид битрейта : Постоянный
Битрейт : 384 Кбит/сек
Каналы : 6 каналов
Расположение каналов : Front: L C R, Side: L R, LFE
Частота : 48,0 КГц
Частота кадров : 31,250 кадров/сек (1536 SPF)
Битовая глубина : 16 бит
Метод сжатия : С потерями
Размер потока : 299 Мбайт (20%)
Выравнивание : Соединение по промежуткам
Продолжительность промежутка : 32 мс. (0,77 видеокадр)

Скриншоты


Рип и релиз от:
[Profile] [PM]
Кто просматривает тему:

Display posts from previous:    

The time now is: Today 04:55

All times are GMT



You cannot post new topics in this forum
You cannot reply to topics in this forum
You cannot edit your posts in this forum
You cannot delete your posts in this forum
You cannot vote in polls in this forum
You cannot attach files in this forum
You cannot download files in this forum