Между двух теней / Entre deux ombres (Филипп Вено / Philippe Venault) [2009, Франция, психологический триллер, драма, DVB] Original (Fre) + Sub (rus)

 
Автор Сообщение

TorrentFilm ®

Пол:

Стаж: 2 года 2 месяца

Сообщений: 7773



Награды: Нет

Торрент-статистика

Создавать темы 13-Мар-2016 00:00

[Цитировать]

Между двух теней
Entre deux ombres- Страна: Франция
Жанр: психологический триллер, драма
Год выпуска: 2009
Продолжительность: 01:32:31
Перевод: Субтитры (перевод Éclair Group/EEOA)
Cубтитры: русские
Оригинальная аудиодорожка: французский
Режиссер: Филипп Вено / Philippe VenaultВ ролях: Аннелиз Эсме / Annelise Hesme (Betty), Мишель Вюйермоз / Michel Vuillermoz (Franck), Марк де Монливо / Marc de Montlivault (Sylvain Felman), Седрик Вебер / Cédric Weber (Thomas), Леа Вяземски / Léa Wiazemsky (L'infirmière)
Описание: Бетти, специалист по работе со слепыми детьми, отправляется в горный поселок, чтобы оказать психологическую помощь 10-летнему Сильвену, год назад потерявшему мать. Прибыв на место, она узнает, что Франк, отец мальчика, до сих пор не отважился сообщить сыну о смерти матери. Она поселяется неподалеку и через некоторое время начинает подозревать, что у отца мальчика могут быть особые причины, чтобы скрывать от сына правду…
Доп. информация: Запись со спутника (телеканал TV5MONDE).
Награды: приз Festival de la fiction TV de La Rochelle 2009 за лучшую женскую роль (Annelise Hesme).
Информация: http://www.imdb.com/title/tt1521867/
Сэмпл: http://multi-up.com/896842
Качество видео: DVB
Формат видео: MPEG-PS [url=viewtopic.php?p=58098458#58098458](См. при проблемах с просмотром видео)[/url]
Видео: MPEG Video 2, 720x576@1024x576 (16:9), 25 fps, ~2709 kbps avg, 0.261 bit/pixel
Аудио: Французский (48 kHz, MPEG Audio 2, 2 ch, ~192.00 kbps avg)
Формат субтитров: hardsub (неотключаемые)

MediaInfo

Полное имя : H:\My Torrents\[apreder]Entre_deux_ombres(2009)DVB.mpgФормат : MPEG-PSРазмер файла : 1,91 ГбайтПродолжительность : 1 ч. 32 м.Режим общего битрейта : ПеременныйОбщий поток : 2960 Кбит/сек
ВидеоИдентификатор : 224 (0xE0)Формат : MPEG VideoВерсия формата : Version 2Профиль формата : Main@MainПараметр BVOP формата : ДаПараметр матрицы формата : ВыборочнаяПараметр GOP формата : M=3, N=24Продолжительность : 1 ч. 32 м.Вид битрейта : ПеременныйБитрейт : 2709 Кбит/секШирина : 720 пикселейВысота : 576 пикселейСоотношение сторон : 16:9Частота кадров : 25,000 кадров/секСтандарт вещания : PALЦветовое пространство : YUVСубдискретизация насыщенности : 4:2:0Битовая глубина : 8 битТип развёртки : ПрогрессивнаяПорядок развёртки : Верхнее поле первоеМетод сжатия : С потерямиБит/(Пиксели*Кадры) : 0.261TimeCode_FirstFrame : 00:00:00:00TimeCode_Source : Group of pictures headerРазмер потока : 1,75 Гбайт (92%)
АудиоИдентификатор : 192 (0xC0)Формат : MPEG AudioВерсия формата : Version 1Профиль формата : Layer 2Продолжительность : 1 ч. 32 м.Вид битрейта : ПостоянныйБитрейт : 192 Кбит/секКаналы : 2 каналаЧастота : 48,0 КГцМетод сжатия : С потерямиРазмер потока : 127 Мбайт (6%)

Скриншот c названием фильма

Скриншоты


Резервные скриншоты


-931/913√
[Профиль] [ЛС]

Создавать темы 12-Июн-2016 07:56 (спустя 2 месяца 30 дней)

Топик был перенесен из форума Фильмы 2011 года в форум Фильмы 2009 года
Russian Mafia
 
Показать сообщения:    

Текущее время: Сегодня 19:14

Часовой пояс: GMT



Вы не можете начинать темы
Вы не можете отвечать на сообщения
Вы не можете редактировать свои сообщения
Вы не можете удалять свои сообщения
Вы не можете голосовать в опросах
Вы не можете прикреплять файлы к сообщениям
Вы не можете скачивать файлы