Международный День Отца / International Father\'s Day (Эдмундс Янсонс / Edmunds Jansons) [2012, мультфильм, WEBRip-AVC]

 
Автор Сообщение

TorrentFilm ®

Пол:

Стаж: 2 года

Сообщений: 7741



Награды: Нет

Торрент-статистика

Создавать темы 27-Июн-2015 00:09

[Цитировать]

Международный День Отца / International Father's Day
Страна: Латвия
Жанр: мультфильм
Продолжительность: 00:05:00
Год выпуска: 2012
Перевод: не требуется
Русские субтитры: нет
Режиссёр: Эдмундс Янсонс / Edmunds Jansons
Описание: Шуточный сюжет, происходящий в городском парке во время празднования Международного Дня Отца. Птица-папа ищет чего-нибудь на пропитание своим птенчикам.
Качество: WEBRip-AVC
Формат: MP4
Видео: 2457 kbps, 1280х720 (16:9), 25.000 fps, AVC (High@L3.1)
Аудио: 158 kbps, 44.1 kHz, 2 channels, AAC (LC)
Субтитры: отсутствуют

Подробные технические данные

General
Complete name : International Father's Day (2012).mp4
Format : MPEG-4
Format profile : Base Media
Codec ID : isom
File size : 93.6 MiB
Duration : 5mn 0s
Overall bit rate mode : Variable
Overall bit rate : 2 617 Kbps
Encoded date : UTC 2012-03-28 19:59:23
Tagged date : UTC 2012-03-29 19:59:26
Video
ID : 1
Format : AVC
Format/Info : Advanced Video Codec
Format profile : High@L3.1
Format settings, CABAC : Yes
Format settings, ReFrames : 4 frames
Codec ID : avc1
Codec ID/Info : Advanced Video Coding
Duration : 5mn 0s
Bit rate : 2 457 Kbps
Maximum bit rate : 12.9 Mbps
Width : 1 280 pixels
Height : 720 pixels
Display aspect ratio : 16:9
Frame rate mode : Constant
Frame rate : 25.000 fps
Color space : YUV
Chroma subsampling : 4:2:0
Bit depth : 8 bits
Scan type : Progressive
Bits/(Pixel*Frame) : 0.107
Stream size : 87.9 MiB (94%)
Writing library : Vimeo Encoder
Encoded date : UTC 2012-03-28 19:59:23
Tagged date : UTC 2012-03-28 19:59:24
Audio
ID : 2
Format : AAC
Format/Info : Advanced Audio Codec
Format profile : LC
Codec ID : 40
Duration : 5mn 0s
Bit rate mode : Variable
Bit rate : 158 Kbps
Maximum bit rate : 228 Kbps
Channel(s) : 2 channels
Channel positions : Front: L R
Sampling rate : 44.1 KHz
Compression mode : Lossy
Stream size : 5.64 MiB (6%)
Encoded date : UTC 2012-03-28 19:59:24
Tagged date : UTC 2012-03-28 19:59:24

Скриншоты

[Профиль] [ЛС]
Показать сообщения:    

Текущее время: Сегодня 02:15

Часовой пояс: GMT



Вы не можете начинать темы
Вы не можете отвечать на сообщения
Вы не можете редактировать свои сообщения
Вы не можете удалять свои сообщения
Вы не можете голосовать в опросах
Вы не можете прикреплять файлы к сообщениям
Вы не можете скачивать файлы