Мед в голове / Head Full of Honey (2018) BDRip | iTunes

 
Author Message

BOSS ®

Gender:

Longevity: 5 years 4 months

Posts: 14260

Location: ODESSA



: 22 ()

Top Releaser 3 (1) Top Releaser 5 (1) Top Seeder 5 (1)
Торрент-статистика

Post 13-Feb-2020 15:56

[Quote]

Информация о фильме
Название: Мед в голове
Оригинальное название: Head Full of Honey
Год выхода: 2018
Жанр: Драма, комедия
Страна: Германия, США
Перевод: Дублированный | iTunes + субтитры на непереведенные места ~ 5 мин
Продолжительность: 02:11:51
Режиссер: Тиль Швайгер
В ролях: Ник Нолти, Мэтт Диллон, Эмили Мортимер, Софи Лане, Жаклин Биссет, Эрик Робертс, Грета Скакки, Джулиан Овенден, Джейк Уэбер, Тиль Швайгер и др.
О фильме: Ремейк одноименной картины 2014 года. История о старике Амандусе, который из-за болезни Альцгеймера становится героем и виновником разнообразных неурядиц, доставляя массу хлопот своим домочадцам. Наконец, его любящая внучка узнает, что родители намерены отправить Амандуса в дом престарелых. Опечаленная таким решением девочка сбегает вместе с больным дедом в Венецию, где он когда-то провел счастливейшие дни своей молодости.

Файл
Формат: AVI
Качество: BDRip | Head.Full.of.Honey.2018.1080p.BluRay.REMUX.AVC.DTS-HD.MA.5.1-EPSiLON
Видео: Xvid 73, 720x304, ~1378 kbps, 23,976 fps
Звук: русский, AC3, 2.0 ch, 48 kHz, 192 kbps | iTunes + вставки оригинала ~ 5 мин
Субтитры: русские (форс. вшитые)

MI

Общее
Полное имя : G:Torrent2MedVGoloveBDRip.avi
Формат : AVI
Формат/Информация : Audio Video Interleave
Размер файла : 1,45 Гбайт
Продолжительность : 2 ч. 11 м.
Общий поток : 1579 Кбит/сек
Программа кодирования : VirtualDubMod 1.5.10.3 | www.virtualdub-fr.org || (build 2550/release)
Библиотека кодирования : VirtualDubMod build 2550/release
Видео
Идентификатор : 0
Формат : MPEG-4 Visual
Профиль формата : Advanced Simple@L5
Настройки формата : BVOP1 / Custom Matrix
Параметр BVOP формата : 1
Параметр QPel формата : Нет
Параметр GMC формата : Без точки перехода
Параметр матрицы формата : Выборочная
Идентификатор кодека : XVID
Идентификатор кодека/Подсказка : XviD
Продолжительность : 2 ч. 11 м.
Битрейт : 1378 Кбит/сек
Ширина : 720 пикселей
Высота : 304 пикселя
Соотношение сторон : 2,35:1
Частота кадров : 23,976 (24000/1001) кадра/сек
Цветовое пространство : YUV
Субдискретизация насыщенности : 4:2:0
Битовая глубина : 8 бит
Тип развёртки : Прогрессивная
Метод сжатия : С потерями
Бит/(Пиксели*Кадры) : 0.263
Размер потока : 1,27 Гбайт (87%)
Библиотека кодирования : XviD 73
Аудио
Идентификатор : 1
Формат : AC-3
Формат/Информация : Audio Coding 3
Параметр Endianness формата : Big
Идентификатор кодека : 2000
Продолжительность : 2 ч. 11 м.
Вид битрейта : Постоянный
Битрейт : 192 Кбит/сек
Каналы : 2 канала
Расположение каналов : Front: L R
Частота : 48,0 КГц
Частота кадров : 31,250 кадров/сек (1536 SPF)
Битовая глубина : 16 бит
Метод сжатия : С потерями
Размер потока : 181 Мбайт (12%)
Выравнивание : Разделение по промежуткам
Продолжительность промежутка : 42 мс. (1,00 видеокадр)
Время предзагрузки промежутка : 500 мс.

Скриншоты


Рип и релиз от:
[Profile] [PM]
Display posts from previous:    

The time now is: Today 21:27

All times are GMT



You cannot post new topics in this forum
You cannot reply to topics in this forum
You cannot edit your posts in this forum
You cannot delete your posts in this forum
You cannot vote in polls in this forum
You cannot attach files in this forum
You cannot download files in this forum