Мед в голове / Head Full of Honey (2018) BDRip 720p | iTunes

 
Author Message

BOSS ®

Gender:

Longevity: 5 years 4 months

Posts: 14260

Location: ODESSA



: 22 ()

Top Seeder 3 (1) Mega Releaser 4 (1) Mega Releaser 3 (1)
Торрент-статистика

Post 13-Feb-2020 15:55

[Quote]

Информация о фильме
Название: Мед в голове
Оригинальное название: Head Full of Honey
Год выхода: 2018
Жанр: Драма, комедия
Страна: Германия, США
Перевод: Дублированный | iTunes + субтитры на непереведенные места ~ 5 мин
Продолжительность: 02:11:51
Режиссер: Тиль Швайгер
В ролях: Ник Нолти, Мэтт Диллон, Эмили Мортимер, Софи Лане, Жаклин Биссет, Эрик Робертс, Грета Скакки, Джулиан Овенден, Джейк Уэбер, Тиль Швайгер и др.
О фильме: Ремейк одноименной картины 2014 года. История о старике Амандусе, который из-за болезни Альцгеймера становится героем и виновником разнообразных неурядиц, доставляя массу хлопот своим домочадцам. Наконец, его любящая внучка узнает, что родители намерены отправить Амандуса в дом престарелых. Опечаленная таким решением девочка сбегает вместе с больным дедом в Венецию, где он когда-то провел счастливейшие дни своей молодости.

Файл
Качество: BDRip 720p | Head.Full.of.Honey.2018.1080p.BluRay.REMUX.AVC.DTS-HD.MA.5.1-EPSiLON
Видео: MPEG-4 AVC, 1280x536, 4750 kbps, 23,976 fps
Звук#1: русский, AC3, 5.1 ch, 48 kHz, 384 kbps | iTunes + вставки оригинала ~ 5 мин
Звук#2: английский, AC3, 5.1 ch, 48 kHz, 448 kbps | Оригинал
Субтитры: русские (форс. вшитые)

MI

Общее
Уникальный идентификатор : 245999000456988653447997483544715486068 (0xB911AF22F18468C68C13DB5681CC6374)
Полное имя : G:Torrent2MedVGoloveBDRip720p.mkv
Формат : Matroska
Версия формата : Version 4 / Version 2
Размер файла : 5,14 Гбайт
Продолжительность : 2 ч. 11 м.
Общий поток : 5578 Кбит/сек
Дата кодирования : UTC 2020-02-12 12:39:23
Программа кодирования : mkvmerge v9.5.0 ('Quiet Fire') 64bit
Библиотека кодирования : libebml v1.3.4 + libmatroska v1.4.5
Видео
Идентификатор : 1
Формат : AVC
Формат/Информация : Advanced Video Codec
Профиль формата : High@L4.1
Настройки формата : CABAC / 12 Ref Frames
Параметр CABAC формата : Да
Параметр RefFrames формата : 12 кадров
Идентификатор кодека : V_MPEG4/ISO/AVC
Продолжительность : 2 ч. 11 м.
Битрейт : 4750 Кбит/сек
Ширина : 1280 пикселей
Высота : 536 пикселей
Соотношение сторон : 2,40:1
Режим частоты кадров : Постоянный
Частота кадров : 23,976 (23976/1000) кадра/сек
Цветовое пространство : YUV
Субдискретизация насыщенности : 4:2:0
Битовая глубина : 8 бит
Тип развёртки : Прогрессивная
Бит/(Пиксели*Кадры) : 0.289
Размер потока : 4,37 Гбайт (85%)
Заголовок : Sisendrovich(R)
Библиотека кодирования : x264 core 159 r2991 1771b55
Настройки программы : cabac=1 / ref=12 / deblock=1:-1:-1 / analyse=0x3:0x133 / me=tesa / subme=11 / psy=1 / psy_rd=1.00:0.00 / mixed_ref=1 / me_range=32 / chroma_me=1 / trellis=2 / 8x8dct=1 / cqm=0 / deadzone=21,11 / fast_pskip=0 / chroma_qp_offset=-2 / threads=17 / lookahead_threads=4 / sliced_threads=0 / nr=0 / decimate=0 / interlaced=0 / bluray_compat=0 / constrained_intra=0 / bframes=10 / b_pyramid=2 / b_adapt=2 / b_bias=0 / direct=3 / weightb=1 / open_gop=0 / weightp=2 / keyint=240 / keyint_min=23 / scenecut=40 / intra_refresh=0 / rc_lookahead=60 / rc=2pass / mbtree=0 / bitrate=4750 / ratetol=1.0 / qcomp=0.70 / qpmin=0 / qpmax=69 / qpstep=4 / cplxblur=20.0 / qblur=0.5 / vbv_maxrate=50000 / vbv_bufsize=62500 / nal_hrd=none / filler=0 / ip_ratio=1.40 / pb_ratio=1.30 / aq=3:0.90
Язык : English
Default : Да
Forced : Нет
Аудио #1
Идентификатор : 2
Формат : AC-3
Формат/Информация : Audio Coding 3
Параметр Endianness формата : Big
Идентификатор кодека : A_AC3
Продолжительность : 2 ч. 11 м.
Вид битрейта : Постоянный
Битрейт : 384 Кбит/сек
Каналы : 6 каналов
Расположение каналов : Front: L C R, Side: L R, LFE
Частота : 48,0 КГц
Частота кадров : 31,250 кадров/сек (1536 SPF)
Битовая глубина : 16 бит
Метод сжатия : С потерями
Размер потока : 362 Мбайт (7%)
Заголовок : rus
Язык : Russian
Default : Да
Forced : Нет
Аудио #2
Идентификатор : 3
Формат : AC-3
Формат/Информация : Audio Coding 3
Параметр Endianness формата : Big
Идентификатор кодека : A_AC3
Продолжительность : 2 ч. 11 м.
Вид битрейта : Постоянный
Битрейт : 448 Кбит/сек
Каналы : 6 каналов
Расположение каналов : Front: L C R, Side: L R, LFE
Частота : 48,0 КГц
Частота кадров : 31,250 кадров/сек (1536 SPF)
Битовая глубина : 16 бит
Метод сжатия : С потерями
Размер потока : 423 Мбайт (8%)
Заголовок : eng
Язык : English
Default : Нет
Forced : Нет
Меню
00:00:00.000 : en:Chapter 1
00:08:39.978 : en:Chapter 2
00:17:41.978 : en:Chapter 3
00:29:21.093 : en:Chapter 4
00:36:42.367 : en:Chapter 5
00:51:57.990 : en:Chapter 6
01:01:18.633 : en:Chapter 7
01:11:59.524 : en:Chapter 8
01:23:10.819 : en:Chapter 9
01:37:06.779 : en:Chapter 10
01:47:00.956 : en:Chapter 11
01:56:36.448 : en:Chapter 12

Скриншоты


Рип и релиз от:
[Profile] [PM]
Display posts from previous:    

The time now is: Today 22:04

All times are GMT



You cannot post new topics in this forum
You cannot reply to topics in this forum
You cannot edit your posts in this forum
You cannot delete your posts in this forum
You cannot vote in polls in this forum
You cannot attach files in this forum
You cannot download files in this forum