Медовый месяц / Honeymoon (Ли Джаньяк / Leigh Janiak) [2014, США, ужасы, HDRip] VO (R.A.I.M)

 
Автор Сообщение

TorrentFilm ®

Пол:

Стаж: 1 год 11 месяцев

Сообщений: 7741



Награды: Нет

Торрент-статистика

Создавать темы 06-Янв-2015 00:00

[Цитировать]

--Медовый месяц / Honeymoon-«After the ceremony comes the ritual»- Страна: США
Жанр: ужасы
Год выпуска: 2014
Продолжительность: 01:27:28-Перевод: Одноголосый закадровый R.A.I.M
Cубтитры: нет
Режиссер: Ли Джаньяк / Leigh Janiak-В ролях: Роуз Лесли, Гарри Тредэвэй, Бен Хубер, Ханна Браун, Генри Лоуренс
Описание: Молодожёны Пол и Би отправляются в удалённое местечко у озера, чтобы провести там медовый месяц. Вскоре после прибытия Пол находит Би блуждающей посреди ночи в лесу. И по мере того, как она становится всё более отчуждённой, Пол начинает подозревать, что это был не просто лунатизм и в лесу произошло что-то ужасное…-|Сэмпл|IMDB|КиноПоиск|-Качество видео: HDRip
Формат видео: AVI
Видео: 720x384 (1.88:1), 23.976 fps, XviD build 50 ~2002 kbps avg, 0.30 bit/pixel
Аудио: 48 kHz, AC3 Dolby Digital, 3/2 (L,C,R,l,r) + LFE ch, ~384 kbps

MediaInfo

Общее
Полное имя : F:\BD torrent\mytorrentsup\Med0vyj.mes9c.2014.L1.HDRip.1.46GB.avi
Формат : AVI
Формат/Информация : Audio Video Interleave
Размер файла : 1,46 Гбайт
Продолжительность : 1 ч. 27 м.
Общий поток : 2396 Кбит/сек
Программа кодирования : VirtualDubMod 1.5.10.2 (build 2540/release)
Библиотека кодирования : VirtualDubMod build 2540/release
Видео
Идентификатор : 0
Формат : MPEG-4 Visual
Профиль формата : Advanced Simple@L5
Параметр BVOP формата : 2
Параметр QPel формата : Нет
Параметр GMC формата : Без точки перехода
Параметр матрицы формата : Default (MPEG)
Идентификатор кодека : XVID
Идентификатор кодека/Подсказка : XviD
Продолжительность : 1 ч. 27 м.
Битрейт : 2003 Кбит/сек
Ширина : 720 пикселей
Высота : 384 пикселя
Соотношение сторон : 1,85:1
Частота кадров : 23,976 кадра/сек
Цветовое пространство : YUV
Субдискретизация насыщенности : 4:2:0
Битовая глубина : 8 бит
Тип развёртки : Прогрессивная
Метод сжатия : С потерями
Бит/(Пиксели*Кадры) : 0.302
Размер потока : 1,22 Гбайт (84%)
Библиотека кодирования : XviD 1.2.1 (UTC 2008-12-04)
Аудио
Идентификатор : 1
Формат : AC-3
Формат/Информация : Audio Coding 3
Расширение режима : CM (complete main)
Параметр Endianness формата : Big
Идентификатор кодека : 2000
Продолжительность : 1 ч. 27 м.
Вид битрейта : Постоянный
Битрейт : 384 Кбит/сек
Каналы : 6 каналов
Расположение каналов : Front: L C R, Side: L R, LFE
Частота : 48,0 КГц
Битовая глубина : 16 бит
Метод сжатия : С потерями
Размер потока : 240 Мбайт (16%)
Выравнивание : Разделение по промежуткам
Продолжительность промежутка : 42 мс. (1,00 видеокадр)
Время предзагрузки промежутка : 500 мс.

Скриншот c названием фильма

Скриншоты

СравнениеC этой раздачи: http://torrentfilm.net/forum/viewtopic.php?t=4824053 http://screenshotcomparison.com/comparison/107251/picture:0
[Профиль] [ЛС]
Кто просматривает тему:

Форум Тема Автор Размер
Зарубежные Мультфильмы (BDRip 1080p, 720p, Blu-ray, BD-Remux) Би Муви: Медовый заговор / Bee Movie (2007) BDRip 1080p Russian Mafia 4.37 GB
Отечественные мультфильмы Большой и Маленький (Музраб Баймухамедов) [1981, Кукольный мультфильм, VHSRip] TorrentFilm 154 MB
Фильмы 2015 года Влюбить и обезвредить (Анарио Мамедов) [2015 г., Комедия, WEB-DLRip-AVC] [iTunes] BOSS 2.1 GB
Фильмы 2015 года Влюбить и обезвредить (Анарио Мамедов) [2015 г., Комедия, WEB-DLRip] [iTunes] BOSS 744 MB
Фильмы 2016 года Голоса большой страны (Таир Мамедов) [2016, мюзикл, комедия, мелодрама, WEB-DLRip] [iTunes] BOSS 700 MB
Фильмы (HD Rips | 720p, 1080p) Голоса большой страны (Таир Мамедов) [2016, Россия, мюзикл, комедия, мелодрама, WEB-DL 720p] + Original Rus TorrentFilm 3.09 GB
Отечественные мультфильмы Город мастеров медовых дел / Meemeistrite linn (Хейно Парс / Heino Pars) [1983, кукольный мультфильм, TVRip] MVO TorrentFilm 345 MB
Фильмы 2015 года Женщины против мужчин (Таир Мамедов) [2015 г., комедия, WEBRip ] достали все 746 MB
Показать сообщения:    

Текущее время: Сегодня 20:05

Часовой пояс: GMT



Вы не можете начинать темы
Вы не можете отвечать на сообщения
Вы не можете редактировать свои сообщения
Вы не можете удалять свои сообщения
Вы не можете голосовать в опросах
Вы не можете прикреплять файлы к сообщениям
Вы не можете скачивать файлы