Медвежонок Бутхуз (Карло Сулакаури) [1981 г., кукольный, DVB-AVC]

 
Автор Сообщение

painkiller ®

Стаж: 2 года 10 месяцев

Сообщений: 582



Награды: Нет

Торрент-статистика

Создавать темы 27-Авг-2014 15:30

[Цитировать]

Медвежонок Бутхуз
Жанр: кукольный
Год выпуска: 1981
Продолжительность: 00:16:37
Режиссёр: Карло Сулакаури
Описание: Мульфильм о ленивом медвежонке, которого друзья научили работать...
Доп. информация:

Релиз спутникового канала: "Карусель"
Качество видео: DVB
Формат видео: MPEG-TS
Видео: MPEG4 Video (H264), 720x576@785x576 (4:3), анаморф, 25 fps, 2800 kbps
Аудио: MPEG Audio, 2 сh, 48 kHz, 192 kbps

MediaInfo

General
ID : 1
Complete name : D:\MULT\Медвежонок Бутхуз. (1981)_DVB by SLuMeP.ts
Format : MPEG-TS
File size : 377 MiB
Duration : 16mn 37s
Overall bit rate : 3 172 Kbps
Video
ID : 2251 (0x8CB)
Menu ID : 1 (0x1)
Format : AVC
Format/Info : Advanced Video Codec
Format profile : Main@L3.0
Format settings, CABAC : Yes
Format settings, ReFrames : 3 frames
Codec ID : 27
Duration : 16mn 37s
Bit rate : 2 821 Kbps
Width : 720 pixels
Height : 576 pixels
Display aspect ratio : 4:3
Frame rate : 25.000 fps
Standard : Component
Color space : YUV
Chroma subsampling : 4:2:0
Bit depth : 8 bits
Scan type : Progressive
Bits/(Pixel*Frame) : 0.272
Stream size : 335 MiB (89%)
Color primaries : BT.470-6 System B, BT.470-6 System G, BT.601-6 625, BT.1358 625, BT.1700 625 PAL, BT.1700 625 SECAM
Transfer characteristics : BT.470-6 System B, BT.470-6 System G
Matrix coefficients : BT.470-6 System B, BT.470-6 System G, BT.601-6 625, BT.1358 625, BT.1700 625 PAL, BT.1700 625 SECAM, IEC 61966-2-4 601
Audio
ID : 2252 (0x8CC)
Menu ID : 1 (0x1)
Format : MPEG Audio
Format version : Version 1
Format profile : Layer 2
Codec ID : 3
Duration : 16mn 37s
Bit rate mode : Constant
Bit rate : 192 Kbps
Channel(s) : 2 channels
Sampling rate : 48.0 KHz
Video delay : -40ms
Stream size : 22.8 MiB (6%)
Language : Russian

Скриншоты

[Профиль] [ЛС]
Кто просматривает тему:

Форум Тема Автор Размер
BBC BBC: Мир природы. Андские медведи – призраки леса / The Natural World. Spectacled Bears [сезон 27 эпизод 13] (Fergus Beeley, Angel Garcia-Rojo) [2008 г., Документальный, научно-популярный,... skorpionN 1.49 GB
Viasat Nature Viasat Nature: Лето белых медведей / Polar Bear Summer (Annette & Klaus Scheurich and Matthias Breiter) [2015 г., Документальный, путешествия, флора, фауна, SATRip] skorpionN 803 MB
Документальные HD День Победы Саиды Медведевой (2017) HDTV 1080i ZeNArD 3.68 GB
Отечественные мультсериалы Маша и медведь [01-62] + Машкины страшилки [01-17] + Машины сказки [01-26] + Караоке с Машей (2009-2016) BDRip, DVDRip, WEB-DLRip BOSS 10.25 GB
Отечественные мультсериалы Маша и медведь [01-62] + Машкины страшилки [01-18] + Машины сказки [01-26] + Караоке с Машей (01-09) BDRip, DVDRip, WEB-DLRip BOSS 10.37 GB
Отечественные мультсериалы Маша и медведь+Машкини срашилки. / Маша и медведь+Машкины страшилки [1-61, 1-17] (2009-2017) BDRip, WEB-DLRip BOSS 12.62 GB
Отечественные мультсериалы Маша и Медведь. Машкины страшилки [01-19] (2014-2017) DVDRip, WEB-DLRip BOSS 1.67 GB
Отечественные мультсериалы Маша и Медведь. Машкины страшилки [01-20] (2014-2017) DVDRip, WEB-DLRip BOSS 1.76 GB
Показать сообщения:    

Текущее время: Сегодня 21:13

Часовой пояс: GMT



Вы не можете начинать темы
Вы не можете отвечать на сообщения
Вы не можете редактировать свои сообщения
Вы не можете удалять свои сообщения
Вы не можете голосовать в опросах
Вы не можете прикреплять файлы к сообщениям
Вы не можете скачивать файлы