Медвежонок Бутхуз (Карло Сулакаури) [1981 г., кукольный, DVB-AVC]

 
Автор Сообщение

painkiller ®

Стаж: 3 года

Сообщений: 582



Награды: Нет

Торрент-статистика

Создавать темы 27-Авг-2014 15:30

[Цитировать]

Медвежонок Бутхуз
Жанр: кукольный
Год выпуска: 1981
Продолжительность: 00:16:37
Режиссёр: Карло Сулакаури
Описание: Мульфильм о ленивом медвежонке, которого друзья научили работать...
Доп. информация:

Релиз спутникового канала: "Карусель"
Качество видео: DVB
Формат видео: MPEG-TS
Видео: MPEG4 Video (H264), 720x576@785x576 (4:3), анаморф, 25 fps, 2800 kbps
Аудио: MPEG Audio, 2 сh, 48 kHz, 192 kbps

MediaInfo

General
ID : 1
Complete name : D:\MULT\Медвежонок Бутхуз. (1981)_DVB by SLuMeP.ts
Format : MPEG-TS
File size : 377 MiB
Duration : 16mn 37s
Overall bit rate : 3 172 Kbps
Video
ID : 2251 (0x8CB)
Menu ID : 1 (0x1)
Format : AVC
Format/Info : Advanced Video Codec
Format profile : Main@L3.0
Format settings, CABAC : Yes
Format settings, ReFrames : 3 frames
Codec ID : 27
Duration : 16mn 37s
Bit rate : 2 821 Kbps
Width : 720 pixels
Height : 576 pixels
Display aspect ratio : 4:3
Frame rate : 25.000 fps
Standard : Component
Color space : YUV
Chroma subsampling : 4:2:0
Bit depth : 8 bits
Scan type : Progressive
Bits/(Pixel*Frame) : 0.272
Stream size : 335 MiB (89%)
Color primaries : BT.470-6 System B, BT.470-6 System G, BT.601-6 625, BT.1358 625, BT.1700 625 PAL, BT.1700 625 SECAM
Transfer characteristics : BT.470-6 System B, BT.470-6 System G
Matrix coefficients : BT.470-6 System B, BT.470-6 System G, BT.601-6 625, BT.1358 625, BT.1700 625 PAL, BT.1700 625 SECAM, IEC 61966-2-4 601
Audio
ID : 2252 (0x8CC)
Menu ID : 1 (0x1)
Format : MPEG Audio
Format version : Version 1
Format profile : Layer 2
Codec ID : 3
Duration : 16mn 37s
Bit rate mode : Constant
Bit rate : 192 Kbps
Channel(s) : 2 channels
Sampling rate : 48.0 KHz
Video delay : -40ms
Stream size : 22.8 MiB (6%)
Language : Russian

Скриншоты

[Профиль] [ЛС]
Кто просматривает тему:

Форум Тема Автор Размер
BBC BBC: Мир природы. Андские медведи – призраки леса / The Natural World. Spectacled Bears [сезон 27 эпизод 13] (Fergus Beeley, Angel Garcia-Rojo) [2008 г., Документальный, научно-популярный,... skorpionN 1.49 GB
Viasat Nature Viasat Nature: Лето белых медведей / Polar Bear Summer (Annette & Klaus Scheurich and Matthias Breiter) [2015 г., Документальный, путешествия, флора, фауна, SATRip] skorpionN 803 MB
Отечественные мультфильмы Бабай [Марина Медведь] (2014) WEB-DLRip BOSS 1.2 GB
Фильмы (HD Rips | 720p, 1080p) Бесконечно белый медведь / Infinitely Polar Bear (2014) BDRemux 1080p | Лицензия достали все 16.96 GB
Фильмы (HD Rips | 720p, 1080p) Бесконечно белый медведь / Infinitely Polar Bear (2014) BDRip 1080p | Лицензия BOSS 10.52 GB
Фильмы (HD Rips | 720p, 1080p) Бесконечно белый медведь / Infinitely Polar Bear (2014) BDRip 720p| Лицензия BOSS 5.63 GB
Фильмы 2014 года Бесконечно белый медведь / Infinitely Polar Bear (2014) BDRip-AVC | Лицензия достали все 2.15 GB
Фильмы (HD DVD, Blu-ray и BDRemux) Бесконечно белый медведь / Infinitely Polar Bear (2014) Blu-Ray | Лицензия BOSS 26.99 GB
Показать сообщения:    

Текущее время: Сегодня 08:15

Часовой пояс: GMT



Вы не можете начинать темы
Вы не можете отвечать на сообщения
Вы не можете редактировать свои сообщения
Вы не можете удалять свои сообщения
Вы не можете голосовать в опросах
Вы не можете прикреплять файлы к сообщениям
Вы не можете скачивать файлы