Медвежатник / The Score (Фрэнк Оз)[2001, боевик, триллер, криминал, BDRip] 1080p | 2 x P, 3 x A

 
Автор Сообщение

sergej644 ®

Пол:

Стаж: 4 года 11 месяцев

Сообщений: 6045

Откуда: Soviet Union



Награды: Нет

Торрент-статистика

Создавать темы 07-Мар-2015 22:53

[Цитировать]

--Медвежатник / The Score (2001)
Год выпуска: 2001
Страна: США, Германия
Жанр: боевик, триллер, криминал
Продолжительность: 02:04:06
Перевод: профессиональный многоголосый, авторский
Субтитры: русские, английские (все отдельно)
Режиссёр: Фрэнк Оз
В ролях: Роберт Де Ниро, Эдвард Нортон, Марлон Брандо, Анджела Бассетт, Пол Соулз, Гэри Фармер, Джейми Харролд, Ричард Во, Марк Камачо, Джеймс Спэйдер, Лесли Стефансон, Джон Ливингстон, Кристиан Тессьер, Роберт Миано, Альф Хамфриз, Тим Генри, Ричард Земан, Скотт Хайндл, Алекс Захара, Алвин Сандерс, Морис Демерс, Синди Мэйнс, Кэрин Коновал, Леонард Джордж, Ричард Ян Кокс, Кэтрин Керкпатрик, Тин Труонг Нгуйен, Дэнни Уэттли, Джей Крамер, Майкл Робердс, Элан Росс Гибсон, Пьер Дролет, Кеннет Дж. МакИнтайр, Эллен Кеннеди, Далиас Блэйк, Кит Даллас, Серж Уд, Мартин Дрэйнвилл, Лиза Мари Блэр, Дэвид Л. МакКаллум, Анджело Царучас, Эндрю Уокер
Описание: Ник Уэллс - профессиональный вор, решивший отойти от дел после того, как его чуть было не поймали во время последнего дела. Теперь он живёт в Монреале, владеет джаз-клубом и наслаждается жизнью со своей невестой. Однако бывший партнёр по нелегальному бизнесу предлагает Нику выкрасть старинный и бесценный французский скипетр, перед отправкой во Францию хранящийся в монреальской таможне. Нику придётся работать в паре с молодым и агрессивным вором Джеком Теллером, который собирается сделать всё возможное, чтобы после этого дела Ник остался ни с чем...

Качество: BDRip 1080p
Формат: MKV
Видео кодек: H.264
Аудио кодек: AC3, DTS
Видео: 9890 Кбит/с, 1920x816, 23.976 кадра/с, 0.263 bpp
Аудио 1: русский, DTS, 1509 kbps, 6 ch, 48 kHz [профессиональный многоголосый, Позитив-Мультимедиа]
Аудио 2: русский, AC3, 448 kbps, 6 ch, 48 kHz [профессиональный многоголосый]
Аудио 3: русский, DTS, 1509 kbps, 6 ch, 48 kHz [авторский, Андрей Гаврилов]
Аудио 4: русский, DTS, 1509 kbps, 6 ch, 48 kHz [авторский, Василий Горчаков]
Аудио 5: русский, DTS, 1509 kbps, 6 ch, 48 kHz [авторский, Юрий Живов]
Отдельные файлы
Аудио: русский, AC3, 448 kbps, 6 ch, 48 kHz [профессиональный многоголосый, Позитив-Мультимедиа]
Аудио: русский, AC3, 448 kbps, 6 ch, 48 kHz [авторский, Андрей Гаврилов]
Аудио: русский, AC3, 448 kbps, 6 ch, 48 kHz [авторский, Василий Горчаков]
Аудио: русский, AC3, 448 kbps, 6 ch, 48 kHz [авторский, Юрий Живов]
Аудио: английский, DTS, 1509 kbps, 6 ch, 48 kHz [оригинал]
Имеются неименованные главы/чаптеры.

Кванты и MediaInfo

frame I:1069  Avg QP:17.14  size:191994
frame P:36295 Avg QP:18.36  size:101661
frame B:141172 Avg QP:20.42  size: 39775
Общее
Полное имя                               : D:VideoMedvegatnik.2001.BDRip.1080pMedvegatnik.2001.AVO.rus.А.Гаврилов.ac3
Формат                                   : AC-3
Формат/Информация                        : Audio Coding 3
Размер файла                             : 398 Мбайт
Продолжительность                        : 2 ч. 4 м.
Режим общего битрейта                    : Постоянный
Общий поток                              : 448 Кбит/сек
Аудио
Формат                                   : AC-3
Формат/Информация                        : Audio Coding 3
Расширение режима                        : CM (complete main)
Параметр Endianness формата              : Big
Продолжительность                        : 2 ч. 4 м.
Вид битрейта                             : Постоянный
Битрейт                                  : 448 Кбит/сек
Каналы                                   : 6 каналов
Расположение каналов                     : Front: L C R, Side: L R, LFE
Частота                                  : 48,0 КГц
Битовая глубина                          : 16 бит
Метод сжатия                             : С потерями
Размер потока                            : 398 Мбайт (100%)
Общее
Полное имя                               : D:VideoMedvegatnik.2001.BDRip.1080pMedvegatnik.2001.AVO.rus.В.Горчаков.ac3
Формат                                   : AC-3
Формат/Информация                        : Audio Coding 3
Размер файла                             : 398 Мбайт
Продолжительность                        : 2 ч. 4 м.
Режим общего битрейта                    : Постоянный
Общий поток                              : 448 Кбит/сек
Аудио
Формат                                   : AC-3
Формат/Информация                        : Audio Coding 3
Расширение режима                        : CM (complete main)
Параметр Endianness формата              : Big
Продолжительность                        : 2 ч. 4 м.
Вид битрейта                             : Постоянный
Битрейт                                  : 448 Кбит/сек
Каналы                                   : 6 каналов
Расположение каналов                     : Front: L C R, Side: L R, LFE
Частота                                  : 48,0 КГц
Битовая глубина                          : 16 бит
Метод сжатия                             : С потерями
Размер потока                            : 398 Мбайт (100%)
Общее
Полное имя                               : D:VideoMedvegatnik.2001.BDRip.1080pMedvegatnik.2001.AVO.rus.Ю.Живов.ac3
Формат                                   : AC-3
Формат/Информация                        : Audio Coding 3
Размер файла                             : 398 Мбайт
Продолжительность                        : 2 ч. 4 м.
Режим общего битрейта                    : Постоянный
Общий поток                              : 448 Кбит/сек
Аудио
Формат                                   : AC-3
Формат/Информация                        : Audio Coding 3
Расширение режима                        : CM (complete main)
Параметр Endianness формата              : Big
Продолжительность                        : 2 ч. 4 м.
Вид битрейта                             : Постоянный
Битрейт                                  : 448 Кбит/сек
Каналы                                   : 6 каналов
Расположение каналов                     : Front: L C R, Side: L R, LFE
Частота                                  : 48,0 КГц
Битовая глубина                          : 16 бит
Метод сжатия                             : С потерями
Размер потока                            : 398 Мбайт (100%)
Общее
Уникальный идентификатор                 : 210723805478807667472476113352996734809 (0x9E87EDBF10E92CF3BD6849231070C759)
Полное имя                               : D:VideoMedvegatnik.2001.BDRip.1080pMedvegatnik.2001.BDRip.1080p.mkv
Формат                                   : Matroska
Версия формата                           : Version 4 / Version 2
Размер файла                             : 14,5 Гбайт
Продолжительность                        : 2 ч. 4 м.
Общий поток                              : 16,7 Мбит/сек
Дата кодирования                         : UTC 2015-03-06 03:21:40
Программа кодирования                    : mkvmerge v7.7.0 ('Six Voices') 64bit built on Feb 28 2015 23:39:33
Библиотека кодирования                   : libebml v1.3.1 + libmatroska v1.4.2
DURATION                                 : 02:04:06.454000000
NUMBER_OF_FRAMES                         : 698105
NUMBER_OF_BYTES                          : 1404587328
_STATISTICS_WRITING_APP                  : mkvmerge v7.7.0 ('Six Voices') 64bit built on Feb 28 2015 23:39:33
_STATISTICS_WRITING_DATE_UTC             : 2015-03-06 03:21:40
_STATISTICS_TAGS                         : BPS DURATION NUMBER_OF_FRAMES NUMBER_OF_BYTES
Видео
Идентификатор                            : 1
Формат                                   : AVC
Формат/Информация                        : Advanced Video Codec
Профиль формата                          : High@L4.1
Параметр CABAC формата                   : Да
Параметр ReFrames формата                : 4 кадра
Идентификатор кодека                     : V_MPEG4/ISO/AVC
Продолжительность                        : 2 ч. 4 м.
Битрейт                                  : 9890 Кбит/сек
Ширина                                   : 1920 пикселей
Высота                                   : 816 пикселей
Соотношение сторон                       : 2,35:1
Режим частоты кадров                     : Постоянный
Частота кадров                           : 23,976 кадра/сек
Цветовое пространство                    : YUV
Субдискретизация насыщенности            : 4:2:0
Битовая глубина                          : 8 бит
Тип развёртки                            : Прогрессивная
Бит/(Пиксели*Кадры)                      : 0.263
Размер потока                            : 8,57 Гбайт (59%)
Заголовок                                : BDRip  --  STarankov
Библиотека кодирования                   : x264 core 142 r2431 ac76440
Настройки программы                      : cabac=1 / ref=4 / deblock=1:-2:-2 / analyse=0x3:0x113 / me=umh / subme=9 / psy=1 / psy_rd=1.00:0.15 / mixed_ref=1 / me_range=32 / chroma_me=1 / trellis=2 / 8x8dct=1 / cqm=0 / deadzone=21,11 / fast_pskip=1 / chroma_qp_offset=-3 / threads=6 / lookahead_threads=1 / sliced_threads=0 / nr=0 / decimate=1 / interlaced=0 / bluray_compat=0 / constrained_intra=0 / bframes=8 / b_pyramid=2 / b_adapt=2 / b_bias=0 / direct=3 / weightb=1 / open_gop=0 / weightp=2 / keyint=230 / keyint_min=23 / scenecut=40 / intra_refresh=0 / rc_lookahead=40 / rc=crf / mbtree=0 / crf=19.5 / qcomp=0.60 / qpmin=0 / qpmax=69 / qpstep=4 / vbv_maxrate=40000 / vbv_bufsize=50000 / crf_max=0.0 / nal_hrd=none / filler=0 / ip_ratio=1.40 / pb_ratio=1.30 / aq=1:1.00
Язык                                     : English
Default                                  : Да
Forced                                   : Нет
DURATION                                 : 02:04:06.439000000
NUMBER_OF_FRAMES                         : 178536
NUMBER_OF_BYTES                          : 9510071690
_STATISTICS_WRITING_APP                  : mkvmerge v7.7.0 ('Six Voices') 64bit built on Feb 28 2015 23:39:33
_STATISTICS_WRITING_DATE_UTC             : 2015-03-06 03:21:40
_STATISTICS_TAGS                         : BPS DURATION NUMBER_OF_FRAMES NUMBER_OF_BYTES
Аудио #1
Идентификатор                            : 2
Формат                                   : DTS
Формат/Информация                        : Digital Theater Systems
Режим                                    : 16
Параметр Endianness формата              : Big
Идентификатор кодека                     : A_DTS
Продолжительность                        : 2 ч. 4 м.
Вид битрейта                             : Постоянный
Битрейт                                  : 1509 Кбит/сек
Каналы                                   : 6 каналов
Расположение каналов                     : Front: L C R, Side: L R, LFE
Частота                                  : 48,0 КГц
Битовая глубина                          : 24 бит
Метод сжатия                             : С потерями
Размер потока                            : 1,31 Гбайт (9%)
Заголовок                                : MVO (Позитив-Мультимедиа)
Язык                                     : Russian
Default                                  : Да
Forced                                   : Нет
Аудио #2
Идентификатор                            : 3
Формат                                   : AC-3
Формат/Информация                        : Audio Coding 3
Расширение режима                        : CM (complete main)
Параметр Endianness формата              : Big
Идентификатор кодека                     : A_AC3
Продолжительность                        : 2 ч. 4 м.
Вид битрейта                             : Постоянный
Битрейт                                  : 448 Кбит/сек
Каналы                                   : 6 каналов
Расположение каналов                     : Front: L C R, Side: L R, LFE
Частота                                  : 48,0 КГц
Битовая глубина                          : 16 бит
Метод сжатия                             : С потерями
Размер потока                            : 398 Мбайт (3%)
Заголовок                                : MVO
Язык                                     : Russian
Default                                  : Нет
Forced                                   : Нет
Аудио #3
Идентификатор                            : 4
Формат                                   : DTS
Формат/Информация                        : Digital Theater Systems
Режим                                    : 16
Параметр Endianness формата              : Big
Идентификатор кодека                     : A_DTS
Продолжительность                        : 2 ч. 4 м.
Вид битрейта                             : Постоянный
Битрейт                                  : 1509 Кбит/сек
Каналы                                   : 6 каналов
Расположение каналов                     : Front: L C R, Side: L R, LFE
Частота                                  : 48,0 КГц
Битовая глубина                          : 24 бит
Метод сжатия                             : С потерями
Размер потока                            : 1,31 Гбайт (9%)
Заголовок                                : AVO (Андрей Гаврилов)
Язык                                     : Russian
Default                                  : Нет
Forced                                   : Нет
Аудио #4
Идентификатор                            : 5
Формат                                   : DTS
Формат/Информация                        : Digital Theater Systems
Режим                                    : 16
Параметр Endianness формата              : Big
Идентификатор кодека                     : A_DTS
Продолжительность                        : 2 ч. 4 м.
Вид битрейта                             : Постоянный
Битрейт                                  : 1509 Кбит/сек
Каналы                                   : 6 каналов
Расположение каналов                     : Front: L C R, Side: L R, LFE
Частота                                  : 48,0 КГц
Битовая глубина                          : 24 бит
Метод сжатия                             : С потерями
Размер потока                            : 1,31 Гбайт (9%)
Заголовок                                : AVO (Василий Горчаков)
Язык                                     : Russian
Default                                  : Нет
Forced                                   : Нет
Аудио #5
Идентификатор                            : 6
Формат                                   : DTS
Формат/Информация                        : Digital Theater Systems
Режим                                    : 16
Параметр Endianness формата              : Big
Идентификатор кодека                     : A_DTS
Продолжительность                        : 2 ч. 4 м.
Вид битрейта                             : Постоянный
Битрейт                                  : 1509 Кбит/сек
Каналы                                   : 6 каналов
Расположение каналов                     : Front: L C R, Side: L R, LFE
Частота                                  : 48,0 КГц
Битовая глубина                          : 24 бит
Метод сжатия                             : С потерями
Размер потока                            : 1,31 Гбайт (9%)
Заголовок                                : AVO (Юрий Живов)
Язык                                     : Russian
Default                                  : Нет
Forced                                   : Нет
Меню
00:00:00.000                             : en:00:00:00.000
00:10:34.342                             : en:00:10:34.342
00:16:47.215                             : en:00:16:47.215
00:22:11.664                             : en:00:22:11.664
00:32:47.591                             : en:00:32:47.591
00:37:43.803                             : en:00:37:43.803
00:46:34.834                             : en:00:46:34.834
00:57:19.603                             : en:00:57:19.603
01:05:02.857                             : en:01:05:02.857
01:09:59.821                             : en:01:09:59.821
01:18:38.797                             : en:01:18:38.797
01:26:06.745                             : en:01:26:06.745
01:35:49.243                             : en:01:35:49.243
01:45:18.979                             : en:01:45:18.979
01:54:36.703                             : en:01:54:36.703
Общее
Полное имя                               : D:VideoMedvegatnik.2001.BDRip.1080pMedvegatnik.2001.eng.srt
Формат                                   : SubRip
Размер файла                             : 79,5 Кбайт
Текст
Формат                                   : SubRip
Метод сжатия                             : Без потерь
Общее
Полное имя                               : D:VideoMedvegatnik.2001.BDRip.1080pMedvegatnik.2001.MVO.rus.Позитив-Мультимедиа.ac3
Формат                                   : AC-3
Формат/Информация                        : Audio Coding 3
Размер файла                             : 398 Мбайт
Продолжительность                        : 2 ч. 4 м.
Режим общего битрейта                    : Постоянный
Общий поток                              : 448 Кбит/сек
Аудио
Формат                                   : AC-3
Формат/Информация                        : Audio Coding 3
Расширение режима                        : CM (complete main)
Параметр Endianness формата              : Big
Продолжительность                        : 2 ч. 4 м.
Вид битрейта                             : Постоянный
Битрейт                                  : 448 Кбит/сек
Каналы                                   : 6 каналов
Расположение каналов                     : Front: L C R, Side: L R, LFE
Частота                                  : 48,0 КГц
Битовая глубина                          : 16 бит
Метод сжатия                             : С потерями
Размер потока                            : 398 Мбайт (100%)
Общее
Полное имя                               : D:VideoMedvegatnik.2001.BDRip.1080pMedvegatnik.2001.Original.eng.dts
Формат                                   : DTS
Формат/Информация                        : Digital Theater Systems
Размер файла                             : 1,31 Гбайт
Продолжительность                        : 2 ч. 4 м.
Режим общего битрейта                    : Постоянный
Общий поток                              : 1509 Кбит/сек
Аудио
Формат                                   : DTS
Формат/Информация                        : Digital Theater Systems
Режим                                    : 16
Параметр Endianness формата              : Big
Продолжительность                        : 2 ч. 4 м.
Вид битрейта                             : Постоянный
Битрейт                                  : 1509 Кбит/сек
Каналы                                   : 6 каналов
Расположение каналов                     : Front: L C R, Side: L R, LFE
Частота                                  : 48,0 КГц
Битовая глубина                          : 24 бит
Метод сжатия                             : С потерями
Размер потока                            : 1,31 Гбайт
Общее
Полное имя                               : D:VideoMedvegatnik.2001.BDRip.1080pMedvegatnik.2001.rus.srt
Формат                                   : SubRip
Размер файла                             : 110 Кбайт
Текст
Формат                                   : SubRip
Метод сжатия                             : Без потерь

Скриншоты

[Профиль] [ЛС]
Показать сообщения:    

Текущее время: Сегодня 20:18

Часовой пояс: GMT



Вы не можете начинать темы
Вы не можете отвечать на сообщения
Вы не можете редактировать свои сообщения
Вы не можете удалять свои сообщения
Вы не можете голосовать в опросах
Вы не можете прикреплять файлы к сообщениям
Вы не можете скачивать файлы