Медвежатник / The Score (2001) BDRip 720p

 
Автор Сообщение

sergej644 ®

Пол:

Стаж: 4 года 11 месяцев

Сообщений: 6044

Откуда: Soviet Union



Награды: Нет

Торрент-статистика

Создавать темы 15-Янв-2015 23:16

[Цитировать]

МедвежатникThe Score Год выпуска: 2001
Страна: США, Германия
Жанр: боевик, триллер, криминал
Продолжительность: 02:04:01
Перевод: Профессиональный (многоголосый, закадровый)(Позитив-Мультимедиа)
Режиссер: Фрэнк Оз
Продюссер: Гари Фостер, Роланд Пеллегрино, Адам Платник
Сценарий: Дэниэл Э. Тейлор, Карио Салем, Лем Доббс
Бюджет: $68 000 000
Премьера в мире: 9 июля 2001
В ролях: Роберт Де Ниро, Эдвард Нортон, Марлон Брандо, Анджела Бассетт, Гэри Фармер, Пол Соулз, Джэми Харольд, Серж Уд, Жан-Рене Уэлле, Мартин Дрэнвиль
Описание: Максу удается уговорить Ника Уэллса поступиться своими двумя самыми важными правилами: всегда работать в одиночку и никогда не грабить в своем городе. Макс нашел ему партнера. События начинают стремительно развиваться. Каждый из медвежатников старается обыграть другого. Планируемое ограбление держит всех в напряжении от начала и до конца. Развязка наступает неожиданно...-
Качество: BDRip 720p
Формат: MKV
Видео кодек: H.264
Аудио кодек: AC3
Видео: English, 4085 Кбит/сек, 1280*544 (2,35:1), в 23,976 кадр/сек, AVC
Аудио:Russian, 640 Кбит/сек, 48,0 КГц, 16 бит, 6 канала(ов), AC-3
Аудио:English, 320 Кбит/сек, 48,0 КГц, 16 бит, 6 канала(ов), AC-3
Субтитры:Русские, английские -srt

Media Info:

Общее
Уникальный идентификатор         : 201662601852308030072466853960027590725 (0x97B6CDEA57CD7D5F84ED8BE1404DD045)
Полное имя                       : E:торрентThe Score(2001) BDRip 720p.mkv
Формат                           : Matroska
Размер файла                     : 4,37 Гбайт
Продолжительность                : 2 ч. 4 м.
Общий поток                      : 5045 Кбит/сек
Дата кодирования                 : UTC 2011-04-05 19:29:26
Программа кодирования            : mkvmerge v4.6.0 ('Still Crazy After All These Years') built on Mar 10 2011 02:50:32
Библиотека кодирования           : libebml v1.2.0 + libmatroska v1.1.0
Видео
Идентификатор                    : 1
Формат                           : AVC
Формат/Информация                : Advanced Video Codec
Профиль формата                  : High@L4.1
Параметр CABAC формата           : Да
Параметр ReFrames формата        : 10 кадры
Идентификатор кодека             : V_MPEG4/ISO/AVC
Продолжительность                : 2 ч. 4 м.
Битрейт                          : 4085 Кбит/сек
Ширина                           : 1280 пикс.
Высота                           : 544 пикс.
Соотношение сторон               : 2,35:1
Частота кадров                   : 23,976 кадр/сек
Цветовое пространство            : YUV
Подвыборка цветности             : 4:2:0
Битовая глубина                  : 8 бит
Тип развёртки                    : Прогрессивная
Бит/(Пиксели*Кадры)              : 0.245
Размер потока                    : 3,45 Гбайт (79%)
Библиотека кодирования           : x264 core 114 r1924 08d04a4
Настройки программы              : cabac=1 / ref=10 / deblock=1:-3:-3 / analyse=0x3:0x133 / me=umh / subme=7 / psy=1 / psy_rd=1.00:0.15 / mixed_ref=1 / me_range=32 / chroma_me=1 / trellis=2 / 8x8dct=1 / cqm=0 / deadzone=21,11 / fast_pskip=0 / chroma_qp_offset=-3 / threads=6 / sliced_threads=0 / nr=0 / decimate=1 / interlaced=0 / constrained_intra=0 / bframes=6 / b_pyramid=2 / b_adapt=1 / b_bias=0 / direct=1 / weightb=0 / open_gop=0 / weightp=2 / keyint=250 / keyint_min=24 / scenecut=40 / intra_refresh=0 / rc_lookahead=40 / rc=2pass / mbtree=1 / bitrate=4085 / ratetol=1.0 / qcomp=0.70 / qpmin=4 / qpmax=51 / qpstep=4 / cplxblur=20.0 / qblur=0.5 / ip_ratio=1.40 / aq=1:1.00
Язык                             : English
Аудио #1
Идентификатор                    : 2
Формат                           : AC-3
Формат/Информация                : Audio Coding 3
Расширение режима                : CM (complete main)
Идентификатор кодека             : A_AC3
Продолжительность                : 2 ч. 4 м.
Вид битрейта                     : Постоянный
Битрейт                          : 640 Кбит/сек
Канал(ы)                         : 6 канала(ов)
Расположение каналов             : Front: L C R, Side: L R, LFE
Частота                          : 48,0 КГц
Битовая глубина                  : 16 бит
Метод сжатия                     : С потерями
Размер потока                    : 568 Мбайт (13%)
Язык                             : Russian
Аудио #2
Идентификатор                    : 3
Формат                           : AC-3
Формат/Информация                : Audio Coding 3
Расширение режима                : CM (complete main)
Идентификатор кодека             : A_AC3
Продолжительность                : 2 ч. 4 м.
Вид битрейта                     : Постоянный
Битрейт                          : 320 Кбит/сек
Канал(ы)                         : 6 канала(ов)
Расположение каналов             : Front: L C R, Side: L R, LFE
Частота                          : 48,0 КГц
Битовая глубина                  : 16 бит
Метод сжатия                     : С потерями
Размер потока                    : 284 Мбайт (6%)
Язык                             : English
Текст #1
Идентификатор                    : 4
Формат                           : UTF-8
Идентификатор кодека             : S_TEXT/UTF8
Идентификатор кодека/Информация  : UTF-8 Plain Text
Язык                             : Russian
Текст #2
Идентификатор                    : 5
Формат                           : UTF-8
Идентификатор кодека             : S_TEXT/UTF8
Идентификатор кодека/Информация  : UTF-8 Plain Text
Язык                             : English

Скриншоты

--
[Профиль] [ЛС]
Показать сообщения:    

Текущее время: Сегодня 14:29

Часовой пояс: GMT



Вы не можете начинать темы
Вы не можете отвечать на сообщения
Вы не можете редактировать свои сообщения
Вы не можете удалять свои сообщения
Вы не можете голосовать в опросах
Вы не можете прикреплять файлы к сообщениям
Вы не можете скачивать файлы