Медведь и жрица / Kuma Miko [S01, SP02] (2016) HDTVRip 720p | SHIZA Project

 
Автор Сообщение

Russian Mafia ®

Пол:

Стаж: 1 год 8 месяцев

Сообщений: 4252



Награды: 10 (Подробнее)

Top Releaser 5 (Количество: 1) Mega Seeder 2 (Количество: 1) За внесенный вклад в развитие сайта (Количество: 1)
Торрент-статистика

Создавать темы 16-Окт-2016 07:10

[Цитировать]

Информация о фильме
Название: Медведь и жрица
Оригинальное название: Kuma Miko
Год выхода: 2016
Жанр: комедия, повседневность
Режиссер: Мацуда Киёси
Художник: Морикава Ацуси, Анми Каори
В ролях: Хиока Нацуми, Ясумото Хироки, Окицу Кадзуюки, Китамура Эри
О фильме:
История расскажет об ученице средней школы Мачи Амаядори, которая является жрицей медвежьего бога. Помимо работы в святыни, она заботится о медведе Нацу, который обитает глубоко в горах в северном регионе Японии — Тохоку. Этот медведь умеет разговаривать, является опекуном и телохранителем Мачи. С помощью Нацу девочка хочет набраться знаний, которые позволят ей в конце концов уйти из храма, чтобы зажить нормальной городской жизнью. После того как Мачи сообщает Нацу, что отправляется учиться в городскую школу, он дает ей несколько указаний и советов, которые помогут ей справиться с городской жизнью.
World Art | MAL
Страна: Япония
Студия: Cinema Citrus, EMT Squared
Продолжительность: 00:24:14
Язык: Русский, Японский
Перевод: Любительский (двухголосый, закадровый)
Файл
Качество: HDTVRip
Формат: MKV
Видео кодек: H.264
Аудио кодек: AAC
Видео: 1280x720, 23.976 fps, 1700 kbps
Аудио RUS: 48.0 kHz, AAC, 2 ch, 192 kbps - SHIZA Project
Аудио JAP: 48.0 kHz, AAC, 2 ch, 192 kbps
Субтитры: русские (встроенные надписи, ASS), русские (встроенные полный перевод, ASS) - LeDi-MaHo Team, русские (встроенные полный перевод, ASS) - YakuSub Studio
Релиз от:
Озвучивание: Snowly, Лизавета
Перевод: LeDi-MaHo Team , YakuSub Studio
Тайминг и работа со звуком: DieDie, Шмель

Скриншоты

Список серий

01. Девочка прощается с медведем
02. Долгая дорога
03. Та, что поддерживает традиции
04. Сокровище медвежьей деревни
05. Противоположность
06. Авангардная деревня
07. Услышь меня
08. В торговом зале
09. Раскрутка
10. Это и есть звезда?!
11. В город?
12. Решение

MediaInfo

General
Format : Matroska
Format version : Version 4 / Version 2
File size : 356 MiB
Duration : 24mn 14s
Overall bit rate : 2 055 Kbps
Encoded date : UTC 2016-04-16 10:30:16
Writing application : mkvmerge v8.3.0 ('Over the Horizon') 64bit
Writing library : libebml v1.3.1 + libmatroska v1.4.2
Video
ID : 1
Format : AVC
Format/Info : Advanced Video Codec
Format profile : High@L4.1
Format settings, CABAC : Yes
Format settings, ReFrames : 4 frames
Codec ID : V_MPEG4/ISO/AVC
Duration : 24mn 14s
Bit rate : 1 668 Kbps
Width : 1 280 pixels
Height : 720 pixels
Display aspect ratio : 16:9
Frame rate mode : Constant
Frame rate : 23.976 (24000/1001) fps
Color space : YUV
Chroma subsampling : 4:2:0
Bit depth : 8 bits
Scan type : Progressive
Bits/(Pixel*Frame) : 0.075
Stream size : 289 MiB (81%)
Writing library : x264 core 129 r2245+729M 1a52e03
Encoding settings : cabac=1 / ref=4 / deblock=1:1:-1 / analyse=0x3:0x113 / me=umh / subme=9 / psy=1 / fade_compensate=0.00 / psy_rd=1.00:0.00 / mixed_ref=1 / me_range=24 / chroma_me=1 / trellis=2 / 8x8dct=1 / cqm=0 / deadzone=21,11 / fast_pskip=1 / chroma_qp_offset=-2 / threads=8 / lookahead_threads=1 / sliced_threads=0 / nr=0 / decimate=1 / interlaced=0 / bluray_compat=0 / constrained_intra=0 / fgo=0 / bframes=9 / b_pyramid=2 / b_adapt=2 / b_bias=0 / direct=1 / weightb=1 / open_gop=0 / weightp=2 / keyint=240 / keyint_min=24 / scenecut=40 / intra_refresh=0 / rc=crf / mbtree=0 / crf=18.0 / qcomp=0.72 / qpmin=0 / qpmax=69 / qpstep=4 / ip_ratio=1.40 / pb_ratio=1.30 / aq=1:0.85
Language : Japanese
Default : Yes
Forced : No
Color range : Limited
Color primaries : BT.709
Transfer characteristics : BT.709
Matrix coefficients : BT.709
Audio #1
ID : 2
Format : AAC
Format/Info : Advanced Audio Codec
Format profile : LC
Codec ID : A_AAC
Duration : 24mn 14s
Bit rate : 192 Kbps
Channel(s) : 2 channels
Channel positions : Front: L R
Sampling rate : 48.0 KHz
Frame rate : 46.875 fps (1024 spf)
Compression mode : Lossy
Stream size : 33.3 MiB (9%)
Title : SHIZA Project
Language : Russian
Default : Yes
Forced : No
Audio #2
ID : 3
Format : AAC
Format/Info : Advanced Audio Codec
Format profile : LC
Codec ID : A_AAC
Duration : 24mn 14s
Bit rate : 192 Kbps
Channel(s) : 2 channels
Channel positions : Front: L R
Sampling rate : 48.0 KHz
Frame rate : 46.875 fps (1024 spf)
Compression mode : Lossy
Stream size : 33.2 MiB (9%)
Title : Original
Language : Japanese
Default : No
Forced : No
Text #1
ID : 4
Format : ASS
Codec ID : S_TEXT/ASS
Codec ID/Info : Advanced Sub Station Alpha
Duration : 23mn 37s
Bit rate : 18 bps
Count of elements : 32
Compression mode : Lossless
Stream size : 3.25 KiB (0%)
Title : Надписи
Language : Russian
Default : Yes
Forced : No
Text #2
ID : 5
Format : ASS
Codec ID : S_TEXT/ASS
Codec ID/Info : Advanced Sub Station Alpha
Duration : 23mn 37s
Bit rate : 153 bps
Count of elements : 329
Compression mode : Lossless
Stream size : 26.6 KiB (0%)
Title : LeDi-MaHo Team
Language : Russian
Default : No
Forced : No
Text #3
ID : 6
Format : ASS
Codec ID : S_TEXT/ASS
Codec ID/Info : Advanced Sub Station Alpha
Duration : 23mn 37s
Bit rate : 185 bps
Count of elements : 347
Compression mode : Lossless
Stream size : 32.1 KiB (0%)
Title : YakuSub Studio
Language : Russian
Default : No
Forced : No
[Профиль] [ЛС]
Показать сообщения:    

Текущее время: Сегодня 08:48

Часовой пояс: GMT



Вы не можете начинать темы
Вы не можете отвечать на сообщения
Вы не можете редактировать свои сообщения
Вы не можете удалять свои сообщения
Вы не можете голосовать в опросах
Вы не можете прикреплять файлы к сообщениям
Вы не можете скачивать файлы