Медведи / DisneyNature: Bears (Аластер Фовергилл / Alastair Fothergill , Кит Шолей / Keith Scholey) [2014, документальный, BDRip 1080p]

 
Автор Сообщение

TorrentFilm ®

Пол:

Стаж: 2 года

Сообщений: 7741



Награды: Нет

Торрент-статистика

Создавать темы 31-Дек-2014 00:00

[Цитировать]

Медведи / DisneyNature: Bears
-Год выпуска: 2014
Страна: США, DisneyNature
Жанр: Документальный
Продолжительность: 01:17:41
Перевод: Русский (Дубляж)
Режиссер: Аластер Фовергилл / Alastair Fothergill , Кит Шолей / Keith Scholey
Русские субтитры: есть-Описание: Документальная лента следует за семьёй медведей на Аляске по мере того, как растущие медвежата начинают постигать главные уроки жизни.-Релиз: by Skazhutin-Тип релиза: BDRip 1080р
Контейнер: MKV
Видео: 1920x1080 at 23.976 fps, x264@L4.1, 2pass, ~19000 kbps avg
Аудио: Russian: 48 kHz, AC3, 3/2 (L,C,R,l,r) + LFE ch, ~640 kbps avg
Аудио 2: English: 48 kHz, DTS, 3/2 (L,C,R,l,r) + LFE ch, ~1509 kbps avg
Субтитры: Russian, English, Spanish, Portuguese
Сэмпл-Раздача от группы: -

Скриншоты

MediaInfo

General
Unique ID : 178141344537537253282103913376137405642 (0x8604C664F25C04059EA779BF095CE4CA)
Complete name : D:\Фильмы\Bears.2014.1080p.BluRay.Rus.Eng.HDCLUB-SbR.mkv
Format : Matroska
Format version : Version 4 / Version 2
File size : 11.5 GiB
Duration : 1h 17mn
Overall bit rate : 21.1 Mbps
Movie name : Bears (2014) - Release for HDCLUB by SbR
Encoded date : UTC 2014-08-05 08:26:03
Writing application : mkvmerge v7.1.0 ('Good Love') 64bit built on Jul 27 2014 13:06:55
Writing library : libebml v1.3.0 + libmatroska v1.4.1
DURATION : 01:17:50.784000000
NUMBER_OF_FRAMES : 145962
NUMBER_OF_BYTES : 373662720
_STATISTICS_WRITING_APP : mkvmerge v7.1.0 ('Good Love') 64bit built on Jul 27 2014 13:06:55
_STATISTICS_WRITING_DATE_UTC : 2014-08-05 08:26:03
_STATISTICS_TAGS : BPS DURATION NUMBER_OF_FRAMES NUMBER_OF_BYTES
Attachment : Yes / Yes
Video
ID : 1
Format : AVC
Format/Info : Advanced Video Codec
Format profile : High@L4.1
Format settings, CABAC : Yes
Format settings, ReFrames : 4 frames
Codec ID : V_MPEG4/ISO/AVC
Duration : 1h 17mn
Bit rate : 19.0 Mbps
Width : 1 920 pixels
Height : 1 080 pixels
Display aspect ratio : 16:9
Frame rate mode : Constant
Frame rate : 23.976 fps
Color space : YUV
Chroma subsampling : 4:2:0
Bit depth : 8 bits
Scan type : Progressive
Bits/(Pixel*Frame) : 0.382
Stream size : 10.1 GiB (88%)
Title : Release for HDCLUB
Writing library : x264 core 142 r2431+42 c69a006 tMod [8-bit@4:2:0 X86_64]
Encoding settings : cabac=1 / ref=4 / deblock=1:-2:-2 / analyse=0x3:0x133 / me=umh / subme=11 / psy=1 / fade_compensate=0.00 / psy_rd=1.00:0.00 / mixed_ref=1 / me_range=32 / chroma_me=1 / trellis=2 / 8x8dct=1 / cqm=0 / deadzone=21,11 / fast_pskip=0 / chroma_qp_offset=-2 / threads=12 / lookahead_threads=2 / sliced_threads=0 / nr=0 / decimate=1 / interlaced=0 / bluray_compat=0 / constrained_intra=0 / fgo=0 / bframes=8 / b_pyramid=2 / b_adapt=2 / b_bias=0 / direct=3 / weightb=1 / open_gop=0 / weightp=2 / keyint=250 / keyint_min=23 / scenecut=40 / intra_refresh=0 / rc_lookahead=120 / rc=2pass / mbtree=1 / bitrate=19000 / ratetol=1.0 / qcomp=0.75 / qpmin=0:0:0 / qpmax=69:69:69 / qpstep=4 / cplxblur=20.0 / qblur=0.5 / vbv_maxrate=62500 / vbv_bufsize=78125 / nal_hrd=none / filler=0 / ip_ratio=1.40 / aq=4:0.80 / aq-sensitivity=11.00 / aq-factor=1.00:1.00:1.00 / aq2=1:0.60 / aq2-sensitivity=9.00 / aq2-factor=1.00:1.00:1.00 / aq3=1:[0.60:0.60]:[0.60:0.60]:[0.60:0.60]:[0.60:0.60] / aq3-sensitivity=10.00 / aq3-factor=[1.00:1.00]:[1.00:1.00]:[1.00:1.00] / aq3-boundary=192:64:24
Language : English
Default : Yes
Forced : No
Color primaries : BT.709
Transfer characteristics : BT.709
Matrix coefficients : BT.709
Audio #1
ID : 2
Format : AC-3
Format/Info : Audio Coding 3
Mode extension : CM (complete main)
Format settings, Endianness : Big
Codec ID : A_AC3
Duration : 1h 17mn
Bit rate mode : Constant
Bit rate : 640 Kbps
Channel(s) : 6 channels
Channel positions : Front: L C R, Side: L R, LFE
Sampling rate : 48.0 KHz
Bit depth : 16 bits
Compression mode : Lossy
Stream size : 356 MiB (3%)
Title : Dub
Language : Russian
Default : Yes
Forced : No
Audio #2
ID : 3
Format : DTS
Format/Info : Digital Theater Systems
Mode : 16
Format settings, Endianness : Big
Codec ID : A_DTS
Duration : 1h 17mn
Bit rate mode : Constant
Bit rate : 1 509 Kbps
Channel(s) : 6 channels
Channel positions : Front: L C R, Side: L R, LFE
Sampling rate : 48.0 KHz
Bit depth : 24 bits
Compression mode : Lossy
Stream size : 840 MiB (7%)
Language : English
Default : No
Forced : No
Text #1
ID : 4
Format : UTF-8
Codec ID : S_TEXT/UTF8
Codec ID/Info : UTF-8 Plain Text
Language : English
Default : No
Forced : No
Text #2
ID : 5
Format : UTF-8
Codec ID : S_TEXT/UTF8
Codec ID/Info : UTF-8 Plain Text
Language : Portuguese
Default : No
Forced : No
Text #3
ID : 6
Format : UTF-8
Codec ID : S_TEXT/UTF8
Codec ID/Info : UTF-8 Plain Text
Language : Russian
Default : No
Forced : No
Text #4
ID : 7
Format : UTF-8
Codec ID : S_TEXT/UTF8
Codec ID/Info : UTF-8 Plain Text
Language : Spanish
Default : No
Forced : No
Menu
00:00:00.000 : en:Скай и её медвежата
00:03:18.698 : en:Покидая берлогу
00:10:35.968 : en:Тихий луг
00:15:30.095 : en:Опасный район
00:19:00.472 : en:День на пляже
00:24:23.545 : en:Ситуация меняется
00:28:12.273 : en:Защищая медвежат
00:37:12.313 : en:Новое место кормёжки
00:41:30.237 : en:Спрятанное убежище
00:47:40.524 : en:Навыки рыбной ловли
00:51:29.169 : en:Кормить или защищать?
00:54:56.584 : en:Путешествие вверх по течению
01:01:01.115 : en:Большой водопад
01:04:45.047 : en:Золотой пруд
01:10:30.392 : en:Приближается зима
01:12:44.985 : en:Финальные титры

Дополнительно

Сохранены оригинальные чаптеры как на Blu-ray.
[Профиль] [ЛС]
Показать сообщения:    

Текущее время: Сегодня 01:28

Часовой пояс: GMT



Вы не можете начинать темы
Вы не можете отвечать на сообщения
Вы не можете редактировать свои сообщения
Вы не можете удалять свои сообщения
Вы не можете голосовать в опросах
Вы не можете прикреплять файлы к сообщениям
Вы не можете скачивать файлы