Мегрэ расставляет сети / Maigret sets a trap (Эшли Пирс / Ashley Pearce) [2016, Великобритания, детектив, HDTVRip] VO (Project Web Mania)

 
Автор Сообщение

TorrentFilm ®

Пол:

Стаж: 2 года

Сообщений: 7741



Награды: Нет

Торрент-статистика

Создавать темы 09-Апр-2016 01:09

[Цитировать]

Мегрэ расставляет сети / Maigret sets a trap

Страна: Великобритания
Жанр: детектив
Год выпуска: 2016
Продолжительность: 01:26:54
Перевод: Одноголосый закадровый [Project Web Mania]
Cубтитры: нет
Режиссер: Эшли Пирс / Ashley Pearce
В ролях: Роуэн Аткинсон, Эйдан Макардл, Руфус Райт, Софи Майер, Александр Кэмпбелл, Дэвид Доусон, Ребекка Найт, Фиона Шоу
Описание: В Париже происходят убийства молодых женщин. Почерк загадочного убийцы повторяется от преступления к преступлению. Комиссар Мегрэ готов на любой риск, если это поможет поймать маньяка. После очередного убийства, Мегрэ решает заманить преступника в ловушку...
Перевод: М_Васильев
Озвучка: Project Web Mania
За что им большой респект!!!
Сэмпл: http://multi-up.com/1096070
Качество видео: HDTVRip (maigret.sets.a.trap.1080p.hdtv.x264-failed)
Формат видео: AVI
Видео: 720x408 (1.76:1), 25 fps, XviD build 73 ~2259 kbps avg, 0.31 bit/pixel
Аудио: 48 kHz, MPEG Layer 3, 2 ch, ~128.00 kbps avg

MediaInfo

Формат : AVI
Формат/Информация : Audio Video Interleave
Размер файла : 1,46 Гбайт
Продолжительность : 1 ч. 26 м.
Общий поток : 2397 Кбит/сек
Программа кодирования : VirtualDubMod 1.5.10.3 (build 2550/release)
Библиотека кодирования : VirtualDubMod build 2550/release
Видео
Идентификатор : 0
Формат : MPEG-4 Visual
Профиль формата : Advanced Simple@L5
Параметр BVOP формата : 1
Параметр QPel формата : Нет
Параметр GMC формата : Без точки перехода
Параметр матрицы формата : Выборочная
Идентификатор кодека : XVID
Идентификатор кодека/Подсказка : XviD
Продолжительность : 1 ч. 26 м.
Битрейт : 2260 Кбит/сек
Ширина : 720 пикселей
Высота : 408 пикселей
Соотношение сторон : 16:9
Частота кадров : 25,000 кадров/сек
Цветовое пространство : YUV
Субдискретизация насыщенности : 4:2:0
Битовая глубина : 8 бит
Тип развёртки : Прогрессивная
Метод сжатия : С потерями
Бит/(Пиксели*Кадры) : 0.308
Размер потока : 1,37 Гбайт (94%)
Библиотека кодирования : XviD 73
Аудио
Идентификатор : 1
Формат : MPEG Audio
Версия формата : Version 1
Профиль формата : Layer 3
Идентификатор кодека : 55
Идентификатор кодека/Подсказка : MP3
Продолжительность : 1 ч. 26 м.
Вид битрейта : Постоянный
Битрейт : 128 Кбит/сек
Каналы : 2 канала
Частота : 48,0 КГц
Метод сжатия : С потерями
Размер потока : 79,6 Мбайт (5%)
Выравнивание : Соединение по промежуткам
Продолжительность промежутка : 40 мс. (1,00 видеокадр)
Время предзагрузки промежутка : 504 мс.

Скриншоты

[Профиль] [ЛС]
Кто просматривает тему:

Форум Тема Автор Размер
Зарубежные сериалы Мегрэ / Maigret [S01-02] (1992–1993) DVDRip | Р достали все 12.2 GB
Боевики, детективы, триллеры Мегрэ и одинокий человек (Жорж Сименон) [2007, Роман, детектив, аудиокнига, MP3, 56 kbps, Эдуард Томан] Magnat 107 MB
Фильмы 2016 года Мегрэ расставляет сети / Maigret sets a trap (Эшли Пирс / Ashley Pearce) [2016, Великобритания, детектив, HDTVRip-AVC] Sub Rus + Original Eng TorrentFilm 940 MB
Зарубежные сериалы Расследования комиссара Мегрэ / Les enquetes du commissaire Maigret [01x08 из 88] (1967–1990) SATRip от New-Team | P Белочка 8.91 GB
Зарубежные сериалы Расследования комиссара Мегрэ / Les enquetes du commissaire Maigret [01x08 из 88] (1967–1990) SATRip-AVC от New-Team | P Белочка 8.92 GB
Зарубежные сериалы Расследования комиссара Мегрэ / Les enquetes du commissaire Maigret [01x10 из 88] (1967–1990) SATRip от New-Team | P sergej644 10.64 GB
Зарубежные сериалы Расследования комиссара Мегрэ / Les enquetes du commissaire Maigret [01x11 из 88] (1967–1990) SATRip от New-Team | P Белочка 12.57 GB
Зарубежные сериалы Расследования комиссара Мегрэ / Les enquetes du commissaire Maigret [01x11 из 88] (1967–1990) SATRip-AVC от New-Team | P Белочка 12.59 GB
Показать сообщения:    

Текущее время: Сегодня 08:52

Часовой пояс: GMT



Вы не можете начинать темы
Вы не можете отвечать на сообщения
Вы не можете редактировать свои сообщения
Вы не можете удалять свои сообщения
Вы не можете голосовать в опросах
Вы не можете прикреплять файлы к сообщениям
Вы не можете скачивать файлы