Мгла / The Mist (2007) BDRip 1080p

 
Автор Сообщение

DOMINION ®

Пол:

Стаж: 2 месяца 22 дня

Сообщений: 882



Награды: 2 (Подробнее)

За внесенный вклад в развитие сайта (Количество: 1) Друг (Количество: 1)
Торрент-статистика

Создавать темы 04-Дек-2018 19:25

[Цитировать]

Информация о фильме
Название: Мгла
Оригинальное название: The Mist
Год выхода: 2007
Жанр: Ужасы, фантастика, триллер, драма
Режиссер: Фрэнк Дарабонт
В ролях: Томас Джейн, Марша Гей Харден, Уильям Сэдлер, Натан Гэмбл, Алекса Давалос, Лори Холден, Крис Оуэн, Андре Брогер, Тоби Джонс, Джеффри ДеМанн, Бак Тэйлор, Фрэнсис Стернхэйген, Сэм Уитуэр, Хулио Седилло, Келли Коллинс Линц, Дэвид Дженсен, Рон Клинтон Смит, Брайан
О фильме:
После сильного урагана маленький городок в штате Мэн накрывает сверхъестественный туман. Посетители местного супермаркета держат оборону внутри помещения. Один из очевидцев молниеносной атаки природной напасти утверждает, что в тумане кто-то или что-то есть. Художник Дэвид Дрейтон, приехавший в магазин с 5-летним сыном за покупками, возглавляет группу активистов, решивших разобраться в случившемся. Вскоре выясняется, что туман и вправду служит прибежищем для полуфантастических существ. Спонтанно возникший коллектив спасшихся начинают сотрясать серьёзные конфликты и противоречия…

Страна: США
Студия: Dimension Films, Darkwoods Productions
Продолжительность: 02:06:00
Перевод: Дублированный, профессиональный многоголосый, авторский, любительский
Файл
Кодек: x.264
Качество: BDRip 1080p
Видео: MPEG-4 AVC, 1920x1080, 8704 Kбит/с, 23.976 кадр/с
Аудио #1: Русский ( АС3, 6ch, 448 Кбит/с, 48.0 KHz) Профессиональный | Дубляж
Аудио #2: Русский ( АС3, 6ch, 384 Кбит/с, 48.0 KHz) Профессиональный (многоголосый, закадровый) Киномания
Аудио #3: Русский ( АС3, 6ch, 384 Кбит/с, 48.0 KHz) Профессиональный (многоголосый, закадровый) Kravec (LostFilm)
Аудио #4: Русский ( АС3, 6ch, 384 Кбит/с, 48.0 KHz) Авторский (одноголосый, закадровый) Ю.Немахов
Аудио #5: Русский ( АС3, 6ch, 384 Кбит/с, 48.0 KHz) Авторский (одноголосый, закадровый) А.Матвеев
Аудио #6: Украинский ( АС3, 6ch, 384 Кбит/с, 48.0 KHz) Профессиональный (многоголосый, закадровый) ТРК. Украина
Аудио #7: Украинский ( АС3, 6ch, 384 Кбит/с, 48.0 KHz) Профессиональный (многоголосый, закадровый) ICTV
Аудио #8: Английский ( AC3, 6ch, 448 Кбит/с, 48.0 KHz)
Субтитры: русские, английские, украинские

MediaInfo

Источник: The.Mist.2007.1080p.BluRay.x264.DTS-FGT
General
Unique ID : 252734412798301942593603600309972359783 (0xBE22E09A91B12879951E40351A9BDA67)
Complete name : The.Mist.2007.BDRip.1080p.mkv
Format : Matroska
Format version : Version 4 / Version 2
File size : 10.5 GiB
Duration : 2 h 5 min
Overall bit rate : 11.9 Mb/s
Encoded date : UTC 2018-07-09 13:12:39
Writing application : mkvmerge v7.1.0 ('Good Love') 64bit built on Jul 27 2014 13:06:55
Writing library : libebml v1.3.0 + libmatroska v1.4.1
Video
ID : 1
Format : AVC
Format/Info : Advanced Video Codec
Format profile : High@L4.1
Format settings : CABAC / 4 Ref Frames
Format settings, CABAC : Yes
Format settings, ReFrames : 4 frames
Codec ID : V_MPEG4/ISO/AVC
Duration : 2 h 5 min
Bit rate : 8 704 kb/s
Width : 1 920 pixels
Height : 1 080 pixels
Display aspect ratio : 16:9
Frame rate mode : Constant
Frame rate : 23.976 FPS
Color space : YUV
Chroma subsampling : 4:2:0
Bit depth : 8 bits
Scan type : Progressive
Bits/(Pixel*Frame) : 0.175
Stream size : 7.65 GiB (73%)
Writing library : x264 core 119 r2106 07efeb4
Encoding settings : cabac=1 / ref=4 / deblock=1:-2:-2 / analyse=0x3:0x133 / me=tesa / subme=11 / psy=1 / psy_rd=1.00:0.10 / mixed_ref=1 / me_range=48 / chroma_me=1 / trellis=2 / 8x8dct=1 / cqm=0 / deadzone=21,11 / fast_pskip=1 / chroma_qp_offset=-5 / threads=8 / sliced_threads=0 / nr=0 / decimate=1 / interlaced=0 / bluray_compat=0 / constrained_intra=0 / bframes=3 / b_pyramid=2 / b_adapt=2 / b_bias=0 / direct=3 / weightb=1 / open_gop=1 / weightp=2 / keyint=250 / keyint_min=23 / scenecut=40 / intra_refresh=0 / rc_lookahead=60 / rc=2pass / mbtree=1 / bitrate=8704 / ratetol=1.0 / qcomp=0.70 / qpmin=0 / qpmax=69 / qpstep=4 / cplxblur=20.0 / qblur=0.5 / ip_ratio=1.40 / aq=1:1.00
Language : English
Default : Yes
Forced : No
Audio #1
ID : 2
Format : AC-3
Format/Info : Audio Coding 3
Codec ID : A_AC3
Duration : 2 h 5 min
Bit rate mode : Constant
Bit rate : 448 kb/s
Channel(s) : 6 channels
Channel positions : Front: L C R, Side: L R, LFE
Sampling rate : 48.0 kHz
Frame rate : 31.250 FPS (1536 SPF)
Bit depth : 16 bits
Compression mode : Lossy
Stream size : 404 MiB (4%)
Title : Дубляж
Language : Russian
Service kind : Complete Main
Default : Yes
Forced : No
Audio #2
ID : 3
Format : AC-3
Format/Info : Audio Coding 3
Codec ID : A_AC3
Duration : 2 h 5 min
Bit rate mode : Constant
Bit rate : 384 kb/s
Channel(s) : 6 channels
Channel positions : Front: L C R, Side: L R, LFE
Sampling rate : 48.0 kHz
Frame rate : 31.250 FPS (1536 SPF)
Bit depth : 16 bits
Compression mode : Lossy
Stream size : 346 MiB (3%)
Title : Киномания
Language : Russian
Service kind : Complete Main
Default : No
Forced : No
Audio #3
ID : 4
Format : AC-3
Format/Info : Audio Coding 3
Codec ID : A_AC3
Duration : 2 h 5 min
Bit rate mode : Constant
Bit rate : 384 kb/s
Channel(s) : 6 channels
Channel positions : Front: L C R, Side: L R, LFE
Sampling rate : 48.0 kHz
Frame rate : 31.250 FPS (1536 SPF)
Bit depth : 16 bits
Compression mode : Lossy
Stream size : 346 MiB (3%)
Title : Kravec (LostFilm)
Language : Russian
Service kind : Complete Main
Default : No
Forced : No
Audio #4
ID : 5
Format : AC-3
Format/Info : Audio Coding 3
Codec ID : A_AC3
Duration : 2 h 5 min
Bit rate mode : Constant
Bit rate : 384 kb/s
Channel(s) : 6 channels
Channel positions : Front: L C R, Side: L R, LFE
Sampling rate : 48.0 kHz
Frame rate : 31.250 FPS (1536 SPF)
Bit depth : 16 bits
Compression mode : Lossy
Stream size : 346 MiB (3%)
Title : Ю.Немахов
Language : Russian
Service kind : Complete Main
Default : No
Forced : No
Audio #5
ID : 6
Format : AC-3
Format/Info : Audio Coding 3
Codec ID : A_AC3
Duration : 2 h 5 min
Bit rate mode : Constant
Bit rate : 384 kb/s
Channel(s) : 6 channels
Channel positions : Front: L C R, Side: L R, LFE
Sampling rate : 48.0 kHz
Frame rate : 31.250 FPS (1536 SPF)
Bit depth : 16 bits
Compression mode : Lossy
Stream size : 346 MiB (3%)
Title : А.Матвеев
Language : Russian
Service kind : Complete Main
Default : No
Forced : No
Audio #6
ID : 7
Format : AC-3
Format/Info : Audio Coding 3
Codec ID : A_AC3
Duration : 2 h 5 min
Bit rate mode : Constant
Bit rate : 384 kb/s
Channel(s) : 6 channels
Channel positions : Front: L C R, Side: L R, LFE
Sampling rate : 48.0 kHz
Frame rate : 31.250 FPS (1536 SPF)
Bit depth : 16 bits
Compression mode : Lossy
Stream size : 346 MiB (3%)
Title : ТРК.Украина
Language : Ukrainian
Service kind : Complete Main
Default : No
Forced : No
Audio #7
ID : 8
Format : AC-3
Format/Info : Audio Coding 3
Codec ID : A_AC3
Duration : 2 h 5 min
Bit rate mode : Constant
Bit rate : 384 kb/s
Channel(s) : 6 channels
Channel positions : Front: L C R, Side: L R, LFE
Sampling rate : 48.0 kHz
Frame rate : 31.250 FPS (1536 SPF)
Bit depth : 16 bits
Compression mode : Lossy
Stream size : 346 MiB (3%)
Title : ICTV
Language : Ukrainian
Service kind : Complete Main
Default : No
Forced : No
Audio #8
ID : 9
Format : AC-3
Format/Info : Audio Coding 3
Codec ID : A_AC3
Duration : 2 h 5 min
Bit rate mode : Constant
Bit rate : 448 kb/s
Channel(s) : 6 channels
Channel positions : Front: L C R, Side: L R, LFE
Sampling rate : 48.0 kHz
Frame rate : 31.250 FPS (1536 SPF)
Bit depth : 16 bits
Compression mode : Lossy
Stream size : 404 MiB (4%)
Language : English
Service kind : Complete Main
Default : No
Forced : No
Text #1
ID : 10
Format : UTF-8
Codec ID : S_TEXT/UTF8
Codec ID/Info : UTF-8 Plain Text
Duration : 1 h 59 min
Bit rate : 78 b/s
Count of elements : 1351
Stream size : 68.6 KiB (0%)
Language : Russian
Default : No
Forced : No
Text #2
ID : 11
Format : PGS
Muxing mode : zlib
Codec ID : S_HDMV/PGS
Codec ID/Info : Picture based subtitle format used on BDs/HD-DVDs
Duration : 1 h 54 min
Bit rate : 4 856 b/s
Count of elements : 2482
Stream size : 3.96 MiB (0%)
Language : Ukrainian
Default : No
Forced : No
Text #3
ID : 12
Format : UTF-8
Codec ID : S_TEXT/UTF8
Codec ID/Info : UTF-8 Plain Text
Duration : 1 h 54 min
Bit rate : 56 b/s
Count of elements : 1750
Stream size : 47.6 KiB (0%)
Language : English
Default : No
Forced : No
Menu
00:00:00.000 : en:The Storm
00:06:02.653 : en:"Something in the Mist"
00:17:34.428 : en:Weird Noises in the Dark
00:22:14.583 : en:Norm's Demise
00:28:42.220 : en:The Price of Disbelief
00:31:46.571 : en:"All We Saw Were Tentacles"
00:38:59.086 : en:The End of Days
00:41:40.956 : en:"No Defense Against the Will of God"
00:47:43.527 : en:"It's Definitely Not Supernatural"
00:54:28.431 : en:"They Came Out of the Smoke; Locusts Upon the Earth"
01:05:58.579 : en:Faith in Humanity
01:17:13.211 : en:Trip to the Pharmacy
01:25:25.495 : en:Expiation
01:29:20.730 : en:The Arrowhead Project
01:35:28.723 : en:Escape From the Market
01:41:05.684 : en:Encounters in the Mist
01:44:07.491 : en:Hopelessness
01:57:23.786 : en:End Credits
[Профиль] [ЛС]
Показать сообщения:    

Текущее время: Сегодня 17:01

Часовой пояс: GMT



Вы не можете начинать темы
Вы не можете отвечать на сообщения
Вы не можете редактировать свои сообщения
Вы не можете удалять свои сообщения
Вы не можете голосовать в опросах
Вы не можете прикреплять файлы к сообщениям
Вы не можете скачивать файлы