Мгла / The Mist (2007) BDRip 1080p

 
Автор Сообщение

DOMINION ®

Пол:

Стаж: 2 месяца 22 дня

Сообщений: 882



Награды: 2 (Подробнее)

За внесенный вклад в развитие сайта (Количество: 1) Друг (Количество: 1)
Торрент-статистика

Создавать темы 04-Дек-2018 19:23

[Цитировать]

Информация о фильме
Название: Мгла
Оригинальное название: The Mist
Год выхода: 2007
Жанр: Ужасы, фантастика, триллер, драма
Режиссер: Фрэнк Дарабонт
В ролях: Томас Джейн, Марша Гей Харден, Уильям Сэдлер, Натан Гэмбл, Алекса Давалос, Лори Холден, Крис Оуэн, Андре Брогер, Тоби Джонс, Джеффри ДеМанн, Бак Тэйлор, Фрэнсис Стернхэйген, Сэм Уитуэр, Хулио Седилло, Келли Коллинс Линц, Дэвид Дженсен, Рон Клинтон Смит, Брайан
О фильме:
После сильного урагана маленький городок в штате Мэн накрывает сверхъестественный туман. Посетители местного супермаркета держат оборону внутри помещения. Один из очевидцев молниеносной атаки природной напасти утверждает, что в тумане кто-то или что-то есть. Художник Дэвид Дрейтон, приехавший в магазин с 5-летним сыном за покупками, возглавляет группу активистов, решивших разобраться в случившемся. Вскоре выясняется, что туман и вправду служит прибежищем для полуфантастических существ. Спонтанно возникший коллектив спасшихся начинают сотрясать серьёзные конфликты и противоречия…

Страна: США
Студия: Dimension Films, Darkwoods Productions
Продолжительность: 02:05:59
Перевод: Дублированный, профессиональный многоголосый, авторский одноголосый
Файл
Формат: Matroska
Качество: BDRip 1080p (nmd)
Видео: h264, 1920х1036 (16:9), 13 500 Kbps at 23.976 fps
Аудио №1: Russian: AC3 5.1 @ ~384 Kbps |Профессиональный (полное дублирование) -исправленный вариант-|
Аудио №2: Russian: AC3 5.1 @ ~384 Kbps |Многоголосый закадровый, Киномания|
Аудио №3: Russian: AC3 5.1 @ ~384 Kbps |Многоголосый закадровый, студия "Кравец"|
Аудио №4: Russian: AC3 5.1 @ ~384 Kbps |Авторский закадровый, Ю.Немахов|
Аудио №5: English: 48 kHz, DTS, 3/2 (L,C,R,l,r) + LFE ch, ~1509 kbps
Субтитры: Русские, Английские
Релиз от:

M/I

x264
x264 [info]: frame I:962 Avg QP:16.87 size:216812
x264 [info]: frame P:43440 Avg QP:18.46 size:111585
x264 [info]: frame B:136847 Avg QP:20.76 size: 56228
x264 [info]: consecutive B-frames: 2.1% 3.6% 5.8% 44.1% 10.9% 30.4% 1.0% 1.9% 0.1%
encoded 181249 frames, 0.40 fps, 13493.22 kb/s
Format : Matroska
Format version : Version 2
File size : 14.6 GiB
Duration : 2h 5mn
Overall bit rate : 16.5 Mbps
Movie name : Release for HDCLUB by nmd
Encoded date : UTC 2012-03-04 11:19:45
Writing application : mkvmerge v5.3.0 ('I could have danced') built on Feb 9 2012 10:38:07
Writing library : libebml v1.2.3 + libmatroska v1.3.0
Video
ID : 1
Format : AVC
Format/Info : Advanced Video Codec
Format profile : High@L4.1
Format settings, CABAC : Yes
Format settings, ReFrames : 4 frames
Codec ID : V_MPEG4/ISO/AVC
Duration : 2h 5mn
Bit rate : 13.5 Mbps
Width : 1 920 pixels
Height : 1 036 pixels
Display aspect ratio : 1.853
Frame rate : 23.976 fps
Color space : YUV
Chroma subsampling : 4:2:0
Bit depth : 8 bits
Scan type : Progressive
Bits/(Pixel*Frame) : 0.283
Stream size : 11.6 GiB (80%)
Title : The Mist (2007) - Release for HDCLUB
Writing library : x264 core 120 r2146 bcd41db
Encoding settings : cabac=1 / ref=4 / deblock=1:-3:-3 / analyse=0x3:0x113 / me=tesa / subme=11 / psy=1 / psy_rd=1.10:0.10 / mixed_ref=1 / me_range=64 / chroma_me=1 / trellis=2 / 8x8dct=1 / cqm=0 / deadzone=21,11 / fast_pskip=1 / chroma_qp_offset=-3 / threads=9 / sliced_threads=0 / nr=0 / decimate=1 / interlaced=0 / bluray_compat=0 / constrained_intra=0 / bframes=8 / b_pyramid=2 / b_adapt=2 / b_bias=0 / direct=1 / weightb=1 / open_gop=0 / weightp=2 / keyint=230 / keyint_min=23 / scenecut=40 / intra_refresh=0 / rc=2pass / mbtree=0 / bitrate=13500 / ratetol=1.0 / qcomp=0.60 / qpmin=0 / qpmax=69 / qpstep=4 / cplxblur=20.0 / qblur=0.5 / ip_ratio=1.40 / pb_ratio=1.30 / aq=1:1.00
Language : English
Default : Yes
Forced : No
Color primaries : BT.709-5, BT.1361, IEC 61966-2-4, SMPTE RP177
Transfer characteristics : BT.709-5, BT.1361
Matrix coefficients : BT.709-5, BT.1361, IEC 61966-2-4 709, SMPTE RP177
Audio #1
ID : 2
Format : AC-3
Format/Info : Audio Coding 3
Mode extension : CM (complete main)
Codec ID : A_AC3
Duration : 2h 5mn
Bit rate mode : Constant
Bit rate : 384 Kbps
Channel(s) : 6 channels
Channel positions : Front: L C R, Side: L R, LFE
Sampling rate : 48.0 KHz
Bit depth : 16 bits
Compression mode : Lossy
Delay relative to video : 1s 0ms
Stream size : 346 MiB (2%)
Title : AC3 5.1 @ 384 Kbps |Дубляж "Исправленный"|
Language : Russian
Default : Yes
Forced : No
Audio #2
ID : 3
Format : AC-3
Format/Info : Audio Coding 3
Mode extension : CM (complete main)
Codec ID : A_AC3
Duration : 2h 5mn
Bit rate mode : Constant
Bit rate : 384 Kbps
Channel(s) : 6 channels
Channel positions : Front: L C R, Side: L R, LFE
Sampling rate : 48.0 KHz
Bit depth : 16 bits
Compression mode : Lossy
Stream size : 346 MiB (2%)
Title : AC3 5.1 @ 384 Kbps |Многоголосный закадровый, Киномания|
Language : Russian
Default : No
Forced : No
Audio #3
ID : 4
Format : AC-3
Format/Info : Audio Coding 3
Mode extension : CM (complete main)
Codec ID : A_AC3
Duration : 2h 5mn
Bit rate mode : Constant
Bit rate : 384 Kbps
Channel(s) : 6 channels
Channel positions : Front: L C R, Side: L R, LFE
Sampling rate : 48.0 KHz
Bit depth : 16 bits
Compression mode : Lossy
Stream size : 346 MiB (2%)
Title : AC3 5.1 @ 384 Kbps |Многоголосный закадровый, Кравец|
Language : Russian
Default : No
Forced : No
Audio #4
ID : 5
Format : AC-3
Format/Info : Audio Coding 3
Mode extension : CM (complete main)
Codec ID : A_AC3
Duration : 2h 5mn
Bit rate mode : Constant
Bit rate : 384 Kbps
Channel(s) : 6 channels
Channel positions : Front: L C R, Side: L R, LFE
Sampling rate : 48.0 KHz
Bit depth : 16 bits
Compression mode : Lossy
Delay relative to video : 1ms
Stream size : 346 MiB (2%)
Title : AC3 5.1 @ 384 Kbps |Авторский закадровый, Немахов|
Language : Russian
Default : No
Forced : No
Audio #5
ID : 6
Format : DTS
Format/Info : Digital Theater Systems
Codec ID : A_DTS
Duration : 2h 5mn
Bit rate mode : Constant
Bit rate : 1 510 Kbps
Channel(s) : 6 channels
Channel positions : Front: L C R, Side: L R, LFE
Sampling rate : 48.0 KHz
Bit depth : 24 bits
Compression mode : Lossy
Delay relative to video : 33ms
Stream size : 1.33 GiB (9%)
Title : DTS 5.1 @ 1536 kbps |Оригинал|
Language : English
Default : No
Forced : No
Text #1
ID : 7
Format : UTF-8
Codec ID : S_TEXT/UTF8
Codec ID/Info : UTF-8 Plain Text
Language : Russian
Default : No
Forced : No
Text #2
ID : 8
Format : UTF-8
Codec ID : S_TEXT/UTF8
Codec ID/Info : UTF-8 Plain Text
Language : English
Default : No
Forced : No
Menu
00:00:00.000 : en: The Storm
00:06:02.654 : en: Something in the Mist
00:17:34.428 : en: Weird Noises in the Dark
00:22:14.583 : en: Norm's Demise
00:28:42.220 : en: The Price of Disbelief
00:31:46.571 : en: All we Saw Were Tentacles
00:38:59.087 : en: The End of Days
00:41:40.957 : en: No Defense Against the Will of God
00:47:43.527 : en: It's Definetely Not Supernatural
00:54:28.432 : en: They Came Out of the Smoke; Locusts Upon the Earth
01:05:58.580 : en: Faith in Humanity
01:17:13.212 : en: Trip to the Pharmacy
01:25:25.495 : en: Expiation
01:29:20.730 : en: The Arrowhead Project
01:35:28.723 : en: Escape From the Market
01:41:05.685 : en: Encounters in the Mist
01:44:07.491 : en: Hopelessness
01:57:23.787 : en: End Credits

Скриншоты

[Профиль] [ЛС]
Показать сообщения:    

Текущее время: Сегодня 16:14

Часовой пояс: GMT



Вы не можете начинать темы
Вы не можете отвечать на сообщения
Вы не можете редактировать свои сообщения
Вы не можете удалять свои сообщения
Вы не можете голосовать в опросах
Вы не можете прикреплять файлы к сообщениям
Вы не можете скачивать файлы