Ма Ма / Ma ma (Хулио Медем) [2015 г., Драма, WEB-DL 720p] MVO

 
Автор Сообщение

BOSS ®

Пол:

Стаж: 2 года 2 месяца

Сообщений: 3751

Откуда: ODESSA



Награды: 20 (Подробнее)

Top Keeper 4 (Количество: 1) Top Releaser 2 (Количество: 1) За внесенный вклад в развитие сайта (Количество: 1)
Торрент-статистика

Создавать темы 03-Фев-2016 16:45

[Цитировать]

-
Ма Ма / Ma ma
-- Год выпуска: 2015
Страна: Испания, Франция
Производство: Backup Media, Ma Ma PelГ­culas AIE, Mare Nostrum Productions, Morena Films S.L., Movistar+, TVE
Жанр: Драма
Продолжительность: 01:57:26
Перевод: Профессиональный (многоголосый, закадровый)
Субтитры: Отсутствуют
Режиссер: Хулио Медем
В ролях: Пенелопа Крус, Сильвия Абаскаль, Алекс Брендемюль, Елена Карранса, Николас Де Висенте, Асьер Эчеандиа, Анна Хименес, Хавьер Мартос, Анабель Маурин, Мигель Мота
Описание: Двое мужчин, одна женщина и один десятилетний ребенок переживают потери и триумфы, спорят о футболе, борются со смертью и до смерти любят друг друга. Магда — талантливая учительница и любящая мама, собирает все силы, чтобы победить болезнь и вернуть себе право жить и быть счастливой.-[imdb]http://www.imdb.com/title/tt3480886[/imdb]-Качество: WEB-DL 720p
Формат: MKV
Видео кодек: H 264
Аудио кодек: AC3
Видео: 1280x532 (2.40:1), 25 fps, MPEG4 AVC, ~2569 kbps avg, 0.151 bit/pixel
Аудио: 48 kHz, AC3 Dolby Digital, 2/0 (L,R) ch, ~192.00 kbps

MediaInfo:

Format : Matroska
Format version : Version 2
File size : 2.26 GiB
Duration : 1h 57mn
Overall bit rate : 2 754 Kbps
Encoded date : UTC 2016-02-03 00:45:43
Writing application : mkvmerge v8.3.0 ('Over the Horizon') 64bit
Writing library : libebml v1.3.1 + libmatroska v1.4.2
DURATION : 01:57:26.688000000
NUMBER_OF_FRAMES : 220209
NUMBER_OF_BYTES : 169120512
_STATISTICS_WRITING_APP : mkvmerge v8.3.0 ('Over the Horizon') 64bit
_STATISTICS_WRITING_DATE_UTC : 2016-02-03 00:45:43
_STATISTICS_TAGS : BPS DURATION NUMBER_OF_FRAMES NUMBER_OF_BYTES
Video
ID : 1
Format : AVC
Format/Info : Advanced Video Codec
Format profile : High@L4
Format settings, CABAC : Yes
Format settings, ReFrames : 4 frames
Codec ID : V_MPEG4/ISO/AVC
Duration : 1h 57mn
Bit rate : 2 569 Kbps
Width : 1 280 pixels
Height : 532 pixels
Display aspect ratio : 2.40:1
Frame rate mode : Constant
Frame rate : 25.000 fps
Color space : YUV
Chroma subsampling : 4:2:0
Bit depth : 8 bits
Scan type : Progressive
Bits/(Pixel*Frame) : 0.151
Stream size : 2.06 GiB (91%)
Writing library : x264 core 142
Encoding settings : cabac=1 / ref=3 / deblock=1:0:0 / analyse=0x3:0x113 / me=hex / subme=7 / psy=1 / psy_rd=1.00:0.00 / mixed_ref=1 / me_range=16 / chroma_me=1 / trellis=1 / 8x8dct=1 / cqm=0 / deadzone=21,11 / fast_pskip=1 / chroma_qp_offset=-2 / threads=36 / lookahead_threads=4 / sliced_threads=0 / nr=0 / decimate=1 / interlaced=0 / bluray_compat=0 / constrained_intra=0 / bframes=6 / b_pyramid=2 / b_adapt=1 / b_bias=0 / direct=1 / weightb=1 / open_gop=0 / weightp=2 / keyint=200 / keyint_min=20 / scenecut=0 / intra_refresh=0 / rc_lookahead=40 / rc=2pass / mbtree=1 / bitrate=2569 / ratetol=1.0 / qcomp=0.60 / qpmin=0 / qpmax=69 / qpstep=4 / cplxblur=20.0 / qblur=0.5 / vbv_maxrate=3854 / vbv_bufsize=10279 / nal_hrd=none / filler=0 / ip_ratio=1.40 / aq=1:1.00
Language : English
Default : Yes
Forced : No
Audio
ID : 2
Format : AC-3
Format/Info : Audio Coding 3
Mode extension : CM (complete main)
Format settings, Endianness : Big
Codec ID : A_AC3
Duration : 1h 57mn
Bit rate mode : Constant
Bit rate : 192 Kbps
Channel(s) : 2 channels
Channel positions : Front: L R
Sampling rate : 48.0 KHz
Bit depth : 16 bits
Compression mode : Lossy
Stream size : 161 MiB (7%)
Default : Yes
Forced : No

Скриншоты:

[Профиль] [ЛС]
Показать сообщения:    

Текущее время: Сегодня 04:31

Часовой пояс: GMT



Вы не можете начинать темы
Вы не можете отвечать на сообщения
Вы не можете редактировать свои сообщения
Вы не можете удалять свои сообщения
Вы не можете голосовать в опросах
Вы не можете прикреплять файлы к сообщениям
Вы не можете скачивать файлы