Ма Ма / Ma ma (2015) WEBRip 1080p | Трейлер

 
Автор Сообщение

BOSS ®

Пол:

Стаж: 2 года 1 месяц

Сообщений: 3718

Откуда: ODESSA



Награды: 20 (Подробнее)

Mega Seeder 2 (Количество: 1) Mega Releaser 1 (Количество: 1) Top Releaser 3 (Количество: 1)
Торрент-статистика

Создавать темы 04-Авг-2015 11:43

[Цитировать]

Год выпуска: 2015
Производство: Испания
Жанр: драма
Перевод: дублированный
Режиссер: Хулио Медем
Продюсеры: Пенелопа Крус, Хулио Медем, Resana Aleski
Актеры: Пенелопа Крус, Луис Тосар, Асьер Эчеандиа, Алекс Брендемюль, Сильвия Абаскаль, Тео Планель, Самуэль Виюэла Гонсалес
Описание фильма:
Двое мужчин, одна женщина и один десятилетний ребенок переживают потери и триумфы, спорят о футболе, борются со смертью и до смерти любят друг друга. Магда — талантливая учительница и любящая мама, собирает все силы, чтобы победить болезнь и вернуть себе право жить и быть счастливой.
Дата мировой премьеры: 11 сентября 2015
Дата российской премьеры: Ноябрь 2015

Продолжительность: 00:01:55
Качество видео: WEBRip 1080p
Видеокодек: MPEG-4 AVC/H.264
Битрейт видео: 8224 Кбит/сек
Размер кадра: 1920x808
Аудиокодек: AAC, 2 канала
Битрейт аудио: 128 Кбит/сек

MediaInfo:

Общее
Полное имя : Ma-ma.mp4
Формат : MPEG-4
Профиль формата : Base Media
Идентификатор кодека : isom
Размер файла : 113 Мбайт
Продолжительность : 1 м. 55 с.
Режим общего битрейта : Переменный
Общий поток : 8224 Кбит/сек
Дата кодирования : UTC 2015-07-30 13:33:06
Дата пометки : UTC 2015-07-30 13:33:06
Программа кодирования : Lavf51.12.1
Видео
Идентификатор : 1
Формат : AVC
Формат/Информация : Advanced Video Codec
Профиль формата : Baseline@L4
Параметр CABAC формата : Нет
Параметр ReFrames формата : 1 кадр
Параметр GOP формата : M=1, N=12
Идентификатор кодека : avc1
Идентификатор кодека/Информация : Advanced Video Coding
Продолжительность : 1 м. 55 с.
Битрейт : 8091 Кбит/сек
Ширина : 1920 пикселей
Высота : 808 пикселей
Соотношение сторон : 2,40:1
Режим частоты кадров : Постоянный
Частота кадров : 25,000 кадров/сек
Цветовое пространство : YUV
Субдискретизация насыщенности : 4:2:0
Битовая глубина : 8 бит
Тип развёртки : Прогрессивная
Бит/(Пиксели*Кадры) : 0.209
Размер потока : 111 Мбайт (98%)
Дата кодирования : UTC 2015-07-30 13:33:06
Дата пометки : UTC 2015-07-30 13:33:06
Аудио
Идентификатор : 2
Формат : AAC
Формат/Информация : Advanced Audio Codec
Профиль формата : LC
Идентификатор кодека : 40
Продолжительность : 1 м. 54 с.
Вид битрейта : Переменный
Битрейт : 128 Кбит/сек
Каналы : 2 канала
Расположение каналов : Front: L R
Частота : 48,0 КГц
Метод сжатия : С потерями
Размер потока : 1,75 Мбайт (2%)
Дата кодирования : UTC 2015-07-30 13:33:06
Дата пометки : UTC 2015-07-30 13:33:06
Скриншоты - -

Скриншоты

[Профиль] [ЛС]
Показать сообщения:    

Текущее время: Сегодня 04:13

Часовой пояс: GMT



Вы не можете начинать темы
Вы не можете отвечать на сообщения
Вы не можете редактировать свои сообщения
Вы не можете удалять свои сообщения
Вы не можете голосовать в опросах
Вы не можете прикреплять файлы к сообщениям
Вы не можете скачивать файлы