Машина Времени и Воскресение "50 лет на двоих" [2000-2004 | концерт | DVDRip-AVC]

 
Автор Сообщение

sergej644 ®

Пол:

Стаж: 4 года 11 месяцев

Сообщений: 6043

Откуда: Soviet Union



Награды: Нет

Торрент-статистика

Создавать темы 26-Июл-2014 00:01

[Цитировать]

-Машина Времени и Воскресение "50 лет на двоих"- Информация о фильме
Название: Машина Времени и Воскресение "50 лет на двоих"
Год выхода: 2000/2004
Страна: Россия
Студия: Sintez Records
Продолжительность: 01:14:09 + 01:06:25
Перевод: Не требуется
Жанр: Рок, блюз

В ролях:
гр. Машина времени и Воскресение
О фильме:
Юбилейный концерт в Спортивном комплексе «Олимпийский» 9 декабря 2000 года, который без сомнения стал событием в культурной жизни Москвы: выступили вместе группы "Машина времени" и "Воскресение". Названия этих групп глубоко символичны, их творчество существует в неразрывной связи со временем и вне всякого времени, как любая музыка, ставшая классикой. Они рассказывают - очень по-разному, но об одом и том же - "о несчастных и счастливых, о добре и зле, о лютой ненависти и святой любви".

Треклист концерта:

-

Треклист - Диск I

01. Все сначала
02. Я ни разу за морем не был
03. Песня о капитане
04. Наш дом
05. Поезд
06. Случилось
07. Когда мы сойдем с ума
08. Я дам тебе знать
09. Спускаясь к великой реке
10. Я тоже был
11. Не оставь меня
12. Я привык бродить один
13. Он был старше ее
14. Однажды мир прогнется под нас
15. Эпоха большой нелюбви
16. Когда ты уйдешь
17. Дело дрянь
18. Посмотри, как я живу
19. Сон

Треклист - Диск II

01. Шанхай-блюз
02. Марионетки
03. Костер
04. Разговор в поезде
05. Последняя любовь
06. Делай свое дело
07. Проводница
08. Мой друг (лучше всех играет блюз)
09. По дороге разочарований
10. Снежная баба
11. За тех, кто в море
12. Синяя птица
13. Скачки
14. Кто виноват?
15. Поворот
16. Мои песни
17. Три окна
-

MediaInfo

DVD 1

Общее
Уникальный идентификатор                 : 237163513103056457053336050003696176722 (0xB26C07FA1C263ED49BC755338C684E52)
Полное имя                               : Mashina_I_V-50_let_na_dvoih-2004_1xDVDRip.h264.drony.mkv
Формат                                   : Matroska
Версия формата                           : Version 4 / Version 2
Размер файла                             : 1,92 Гбайт
Продолжительность                        : 1 ч. 14 м.
Режим общего битрейта                    : Переменный
Общий поток                              : 3704 Кбит/сек
Дата кодирования                         : UTC 2013-01-21 16:35:58
Программа кодирования                    : mkvmerge v5.9.0 ('On The Loose') built on Dec 31 2012 17:36:59
Библиотека кодирования                   : libebml v1.3.0 + libmatroska v1.4.0
Видео
Идентификатор                            : 1
Формат                                   : AVC
Формат/Информация                        : Advanced Video Codec
Профиль формата                          : High@L4.1
Параметр CABAC формата                   : Да
Параметр ReFrames формата                : 3 кадра
Идентификатор кодека                     : V_MPEG4/ISO/AVC
Продолжительность                        : 1 ч. 14 м.
Вид битрейта                             : Переменный
Битрейт                                  : 2499 Кбит/сек
Максимальный битрейт                     : 40,0 Мбит/сек
Ширина                                   : 704 пикселя
Высота                                   : 480 пикселей
Соотношение сторон                       : 4:3
Соотношение сторон в оригинале           : 4:3
Частота кадров                           : 29,970 кадров/сек
Стандарт вещания                         : NTSC
Цветовое пространство                    : YUV
Субдискретизация насыщенности            : 4:2:0
Битовая глубина                          : 8 бит
Тип развёртки                            : Прогрессивная
Бит/(Пиксели*Кадры)                      : 0.247
Размер потока                            : 1,26 Гбайт (66%)
Заголовок                                : drony
Библиотека кодирования                   : x264 core 129 r2245 bc13772
Настройки программы                      : cabac=1 / ref=4 / deblock=1:0:0 / analyse=0x3:0x113 / me=hex / subme=7 / psy=1 / psy_rd=1.00:0.00 / mixed_ref=1 / me_range=16 / chroma_me=1 / trellis=1 / 8x8dct=1 / cqm=0 / deadzone=21,11 / fast_pskip=1 / chroma_qp_offset=-2 / threads=3 / lookahead_threads=1 / sliced_threads=0 / slices=4 / nr=0 / decimate=1 / interlaced=0 / bluray_compat=1 / constrained_intra=0 / bframes=3 / b_pyramid=1 / b_adapt=1 / b_bias=0 / direct=1 / weightb=1 / open_gop=1 / weightp=0 / keyint=29 / keyint_min=1 / scenecut=40 / intra_refresh=0 / rc_lookahead=29 / rc=2pass / mbtree=1 / bitrate=2499 / ratetol=1.0 / qcomp=0.60 / qpmin=0 / qpmax=69 / qpstep=4 / cplxblur=20.0 / qblur=0.5 / vbv_maxrate=40000 / vbv_bufsize=30000 / nal_hrd=vbr / ip_ratio=1.40 / aq=1:1.00
Язык                                     : English
Default                                  : Да
Forced                                   : Нет
Основные цвета                           : BT.709-5, BT.1361, IEC 61966-2-4, SMPTE RP177
Характеристики трансфера                 : BT.709-5, BT.1361
Коэффициенты матрицы                     : BT.709-5, BT.1361, IEC 61966-2-4 709, SMPTE RP177
Аудио #1
Идентификатор                            : 2
Формат                                   : AC-3
Формат/Информация                        : Audio Coding 3
Расширение режима                        : CM (complete main)
Параметр Endianness формата              : Big
Идентификатор кодека                     : A_AC3
Продолжительность                        : 1 ч. 14 м.
Вид битрейта                             : Постоянный
Битрейт                                  : 448 Кбит/сек
Каналы                                   : 6 каналов
Расположение каналов                     : Front: L C R, Side: L R, LFE
Частота                                  : 48,0 КГц
Битовая глубина                          : 16 бит
Метод сжатия                             : С потерями
Размер потока                            : 238 Мбайт (12%)
Заголовок                                : AC3, 448 kbps, 6 ch, 48 kHz
Язык                                     : Russian
Default                                  : Да
Forced                                   : Нет
Аудио #2
Идентификатор                            : 3
Формат                                   : DTS
Формат/Информация                        : Digital Theater Systems
Идентификатор кодека                     : A_DTS
Продолжительность                        : 1 ч. 14 м.
Вид битрейта                             : Постоянный
Битрейт                                  : 755 Кбит/сек
Каналы                                   : 6 каналов
Расположение каналов                     : Front: L C R, Side: L R, LFE
Частота                                  : 48,0 КГц
Битовая глубина                          : 24 бит
Метод сжатия                             : С потерями
Размер потока                            : 400 Мбайт (20%)
Заголовок                                : DTS, 755 kbps, 6 ch, 48 kHz, 24 bits
Язык                                     : Russian
Default                                  : Нет
Forced                                   : Нет
Меню
00:00:00.000                             : en:01. Все сначала
00:03:33.801                             : en:02. Я ни разу за морем не был
00:07:35.001                             : en:03. Песня о капитане
00:11:36.802                             : en:04. Наш дом
00:14:46.403                             : en:05. Поезд
00:18:19.204                             : en:06. Случилось
00:22:31.604                             : en:07. Когда мы сойдем с ума
00:25:37.004                             : en:08. Я дам тебе знать
00:27:54.004                             : en:09. Спускаясь к великой реке
00:31:01.204                             : en:10. Я тоже был
00:34:45.404                             : en:11. Не оставь меня
00:38:29.005                             : en:12. Я привык бродить один
00:43:31.305                             : en:13. Он был старше ее
00:47:02.805                             : en:14. Однажды мир прогнется под нас
00:50:00.706                             : en:15. Эпоха большой нелюбви
00:53:36.507                             : en:16. Когда ты уйдешь
00:59:01.907                             : en:17. Дело дрянь
01:05:00.007                             : en:18. Посмотри, как я живу
01:09:31.908                             : en:19. Сон

DVD 2

Общее
Уникальный идентификатор                 : 184378671983413098205924820237012855587 (0x8AB60A615939689F9F8FD134A5926B23)
Полное имя                               : Mashina_I_V-50_let_na_dvoih-2004_2xDVDRip.h264.drony.mkv
Формат                                   : Matroska
Версия формата                           : Version 4 / Version 2
Размер файла                             : 1,72 Гбайт
Продолжительность                        : 1 ч. 6 м.
Режим общего битрейта                    : Переменный
Общий поток                              : 3702 Кбит/сек
Дата кодирования                         : UTC 2013-01-21 16:55:13
Программа кодирования                    : mkvmerge v5.9.0 ('On The Loose') built on Dec 31 2012 17:36:59
Библиотека кодирования                   : libebml v1.3.0 + libmatroska v1.4.0
Видео
Идентификатор                            : 1
Формат                                   : AVC
Формат/Информация                        : Advanced Video Codec
Профиль формата                          : High@L4.1
Параметр CABAC формата                   : Да
Параметр ReFrames формата                : 3 кадра
Идентификатор кодека                     : V_MPEG4/ISO/AVC
Продолжительность                        : 1 ч. 6 м.
Вид битрейта                             : Переменный
Битрейт                                  : 2499 Кбит/сек
Максимальный битрейт                     : 40,0 Мбит/сек
Ширина                                   : 704 пикселя
Высота                                   : 480 пикселей
Соотношение сторон                       : 4:3
Частота кадров                           : 29,970 кадров/сек
Стандарт вещания                         : NTSC
Цветовое пространство                    : YUV
Субдискретизация насыщенности            : 4:2:0
Битовая глубина                          : 8 бит
Тип развёртки                            : Прогрессивная
Бит/(Пиксели*Кадры)                      : 0.247
Размер потока                            : 1,13 Гбайт (66%)
Заголовок                                : drony
Библиотека кодирования                   : x264 core 129 r2245 bc13772
Настройки программы                      : cabac=1 / ref=4 / deblock=1:0:0 / analyse=0x3:0x113 / me=hex / subme=7 / psy=1 / psy_rd=1.00:0.00 / mixed_ref=1 / me_range=16 / chroma_me=1 / trellis=1 / 8x8dct=1 / cqm=0 / deadzone=21,11 / fast_pskip=1 / chroma_qp_offset=-2 / threads=3 / lookahead_threads=1 / sliced_threads=0 / slices=4 / nr=0 / decimate=1 / interlaced=0 / bluray_compat=1 / constrained_intra=0 / bframes=3 / b_pyramid=1 / b_adapt=1 / b_bias=0 / direct=1 / weightb=1 / open_gop=1 / weightp=0 / keyint=29 / keyint_min=1 / scenecut=40 / intra_refresh=0 / rc_lookahead=29 / rc=2pass / mbtree=1 / bitrate=2499 / ratetol=1.0 / qcomp=0.60 / qpmin=0 / qpmax=69 / qpstep=4 / cplxblur=20.0 / qblur=0.5 / vbv_maxrate=40000 / vbv_bufsize=30000 / nal_hrd=vbr / ip_ratio=1.40 / aq=1:1.00
Язык                                     : English
Default                                  : Да
Forced                                   : Нет
Основные цвета                           : BT.709-5, BT.1361, IEC 61966-2-4, SMPTE RP177
Характеристики трансфера                 : BT.709-5, BT.1361
Коэффициенты матрицы                     : BT.709-5, BT.1361, IEC 61966-2-4 709, SMPTE RP177
Аудио #1
Идентификатор                            : 2
Формат                                   : AC-3
Формат/Информация                        : Audio Coding 3
Расширение режима                        : CM (complete main)
Параметр Endianness формата              : Big
Идентификатор кодека                     : A_AC3
Продолжительность                        : 1 ч. 6 м.
Вид битрейта                             : Постоянный
Битрейт                                  : 448 Кбит/сек
Каналы                                   : 6 каналов
Расположение каналов                     : Front: L C R, Side: L R, LFE
Частота                                  : 48,0 КГц
Битовая глубина                          : 16 бит
Метод сжатия                             : С потерями
Размер потока                            : 213 Мбайт (12%)
Заголовок                                : AC3, 6 ch, 448 kbps, 48 kHz
Язык                                     : Russian
Default                                  : Да
Forced                                   : Нет
Аудио #2
Идентификатор                            : 3
Формат                                   : DTS
Формат/Информация                        : Digital Theater Systems
Идентификатор кодека                     : A_DTS
Продолжительность                        : 1 ч. 6 м.
Вид битрейта                             : Постоянный
Битрейт                                  : 755 Кбит/сек
Каналы                                   : 6 каналов
Расположение каналов                     : Front: L C R, Side: L R, LFE
Частота                                  : 48,0 КГц
Битовая глубина                          : 24 бит
Метод сжатия                             : С потерями
Размер потока                            : 358 Мбайт (20%)
Заголовок                                : DTS, 6 ch, 775 kbps, 48 kHz, 24 bits
Язык                                     : Russian
Default                                  : Нет
Forced                                   : Нет
Меню
00:00:00.000                             : en:01. Шанхай-блюз
00:03:13.000                             : en:02. Марионетки
00:07:16.400                             : en:03. Костер
00:11:04.900                             : en:04. Разговор в поезде
00:13:33.900                             : en:05. Последняя любовь
00:17:32.501                             : en:06. Делай свое дело
00:20:40.501                             : en:07. Проводница
00:24:14.402                             : en:08. Мой друг (лучше всех играет блюз)
00:28:31.103                             : en:09. По дороге разочарований
00:34:19.303                             : en:10. Снежная баба
00:38:38.603                             : en:11. За тех, кто в море
00:41:46.903                             : en:12. Синяя птица
00:44:16.003                             : en:13. Скачки
00:47:44.804                             : en:14. Кто виноват?
00:52:13.505                             : en:15. Поворот
00:56:29.306                             : en:16. Мои песни
00:59:48.806                             : en:17. Три окна
- Файл
Кодек: MPEG-4 AVC/H.264
Качество видео: DVDRip (рип с 2xDVD-9)
Видео: ~2500 kbps, 704x480, 4:3, 29,970 fps
Звук:
Аудио 1: AC3, 5.1 ch, 448 kbps, 48 kHz
Аудио 2: DTS, 6 ch, 755 kbps, 48 kHz, 24 bits
Доп.инфо: Сохранены оригинальные чаптеры DVD

Скриншоты


--
[Профиль] [ЛС]

Создавать темы 13-Авг-2015 12:05 (спустя 1 год)

Топик был перенесен из форума Концерты в форум Наши концерты
sergej644
 
Показать сообщения:    

Текущее время: Сегодня 22:33

Часовой пояс: GMT



Вы не можете начинать темы
Вы не можете отвечать на сообщения
Вы не можете редактировать свои сообщения
Вы не можете удалять свои сообщения
Вы не можете голосовать в опросах
Вы не можете прикреплять файлы к сообщениям
Вы не можете скачивать файлы