Машина времени в джакузи 2 / Hot Tub Time Machine 2 (Стив Пинк / Steve Pink) [2015, США, фантастика, комедия, BDRip] [Theatrical Cut] Dub + Original Eng + subs (Rus, Eng)

 
Автор Сообщение

TorrentFilm ®

Пол:

Стаж: 2 года

Сообщений: 7741



Награды: Нет

Торрент-статистика

Создавать темы 25-Июл-2015 00:06

[Цитировать]

Машина времени в джакузи 2 / Hot Tub Time Machine 2 [Theatrical Cut]- Год выпуска: 2015
Страна: США
Жанр: фантастика, комедия
Продолжительность: 01:33:22
Перевод: Профессиональный (полное дублирование) BD EUR
Субтитры: нет-Режиссер: Стив Пинк / Steve Pink
В ролях: Роб Кордри, Крэйг Робинсон, Кларк Дьюк, Адам Скотт, Гиллиан Джейкобс, Чеви Чейз, Коллетт Вульф, Бьянка Хаазе, Джейсон Джонс, Кумэйл Нанджиани
О фильме: Когда Лу попадает в беду, Ник и Джейкоб решают воспользоваться машиной времени в джакузи, чтобы вернуться в прошлое, но неожиданно оказываются в будущем с Адамом младшим. Теперь им придется изменить будущее, чтобы исправить события в прошлом.-Релиз:
Автор: Elheym
Качество: BDRip (источник: / Blu-ray / 1080p)
Формат: AVI
Видео: 704x400 (1.76:1), 23.976 fps, XviD build 65 ~1834 kbps avg, 0.27 bit/pixel
Аудио: 48 kHz, AC3 Dolby Digital, 3/2 (L,C,R,l,r) + LFE ch, ~384 kbps avg
Размер: 1488.19 Mb (1/3 DVD)
Скачать: Семпл-

Кадры из фильма


-

Mi

Формат : AVI
Формат/Информация : Audio Video Interleave
Размер файла : 1,45 Гбайт
Продолжительность : 1 ч. 33 м.
Общий поток : 2228 Кбит/сек
Название фильма : Машина времени в джакузи 2 / Hot Tub Time Machine 2 [Theatrical Cut] (2015) BDRip
Режиссёр : Elheym
Программа кодирования : VirtualDubMod 1.5.10.2 (build 2540/release)
Правообладатель : HQCLUB
Примечание : 20.07.2015
Видео
Идентификатор : 0
Формат : MPEG-4 Visual
Профиль формата : Advanced Simple@L5
Параметр BVOP формата : 1
Параметр QPel формата : Нет
Параметр GMC формата : Без точки перехода
Параметр матрицы формата : Выборочная
Идентификатор кодека : XVID
Идентификатор кодека/Подсказка : XviD
Продолжительность : 1 ч. 33 м.
Битрейт : 1835 Кбит/сек
Ширина : 704 пикселя
Высота : 400 пикселей
Соотношение сторон : 16:9
Частота кадров : 23,976 кадра/сек
Цветовое пространство : YUV
Субдискретизация насыщенности : 4:2:0
Битовая глубина : 8 бит
Тип развёртки : Прогрессивная
Метод сжатия : С потерями
Бит/(Пиксели*Кадры) : 0.272
Размер потока : 1,20 Гбайт (82%)
Библиотека кодирования : XviD 65
Аудио
Идентификатор : 1
Формат : AC-3
Формат/Информация : Audio Coding 3
Расширение режима : CM (complete main)
Параметр Endianness формата : Big
Идентификатор кодека : 2000
Продолжительность : 1 ч. 33 м.
Вид битрейта : Постоянный
Битрейт : 384 Кбит/сек
Каналы : 6 каналов
Расположение каналов : Front: L C R, Side: L R, LFE
Частота : 48,0 КГц
Битовая глубина : 16 бит
Метод сжатия : С потерями
Размер потока : 256 Мбайт (17%)
Выравнивание : Разделение по промежуткам
Продолжительность промежутка : 42 мс. (1,00 видеокадр)
Время предзагрузки промежутка : 500 мс.
-
[Профиль] [ЛС]
Показать сообщения:    

Текущее время: Сегодня 12:30

Часовой пояс: GMT



Вы не можете начинать темы
Вы не можете отвечать на сообщения
Вы не можете редактировать свои сообщения
Вы не можете удалять свои сообщения
Вы не можете голосовать в опросах
Вы не можете прикреплять файлы к сообщениям
Вы не можете скачивать файлы