Машина времени в джакузи 2 / Hot Tub Time Machine 2 (Стив Пинк / Steve Pink) [2015, США, Фантастика, комедия, HDRip] Dub

 
Автор Сообщение

TorrentFilm ®

Пол:

Стаж: 2 года

Сообщений: 7741



Награды: Нет

Торрент-статистика

Создавать темы 17-Июл-2015 00:07

[Цитировать]

Машина времени в джакузи 2 / Hot Tub Time Machine 2
Страна: США
Жанр: Фантастика, комедия
Год выпуска: 2015
Продолжительность: 01:33:22
Перевод: Профессиональный (дублированный)
Cубтитры: нет
Оригинальная аудиодорожка: нет
Режиссер: Стив Пинк / Steve Pink
В ролях: Роб Кордри, Крэйг Робинсон, Кларк Дьюк, Адам Скотт, Гиллиан Джейкобс, Чеви Чейз, Коллетт Вульф, Бьянка Хаазе, Джейсон Джонс, Кумэйл Нанджиани, Келли Стюарт, Джош Хилд, Гретхен Кёрнер, Лиза Лоб, Джессика Уильямс, Брюс Буффер, Мариана Паола Висенте, Адам Хершман, Джейсон Ричард Аллан Фостер, Фредди Пул
Описание: «Машина времени в джакузи 2» — продолжение истории о гениальных ребятах, сумевших отправиться в иное время в собственном джакузи! Неплохая стратегия — мчаться по эпохам, наслаждаясь пузырьками воды и запахом ароматной пены. На этот раз ванная предоставит компании шанс увидеть себя постаревшими на 20 лет! Это вам не прошлое, как в первый раз. Друзья ужасаются, увидев, какими им предстоит стать: лысины и седина нисколько их не прельщают. Попутно ребята пробуют развлечения нового времени, испытывая курьезы на каждом шагу. Огонька добавляет алкоголь, травка и фантастические прибамбасы новой эпохи.
Сэмпл: https://yadi.sk/i/67rYdkt_hozXF
Качество видео: HDRip
Формат видео: AVI
Видео: MPEG-4 Visual at 1640 Кбит/сек, 720 x 400 (1.800) at 23.976 fps
Аудио: AC-3 at 448 Кбит/сек, 6 каналов, 48,0 КГц

MediaInfo

Общее
Полное имя : F:\Rutracker-Razdachi\Машина времени в джакузи 2.2O15.Dub.HDRip.avi
Формат : AVI
Формат/Информация : Audio Video Interleave
Размер файла : 1,37 Гбайт
Продолжительность : 1 ч. 33 м.
Общий поток : 2098 Кбит/сек
Программа кодирования : VirtualDubMod 1.5.10.2 (build 2540/release)
Библиотека кодирования : VirtualDubMod build 2540/release
Видео
Идентификатор : 0
Формат : MPEG-4 Visual
Профиль формата : Advanced Simple@L5
Параметр BVOP формата : 2
Параметр QPel формата : Нет
Параметр GMC формата : Без точки перехода
Параметр матрицы формата : Default (MPEG)
Идентификатор кодека : XVID
Идентификатор кодека/Подсказка : XviD
Продолжительность : 1 ч. 33 м.
Битрейт : 1640 Кбит/сек
Ширина : 720 пикселей
Высота : 400 пикселей
Соотношение сторон : 16:9
Частота кадров : 23,976 кадра/сек
Цветовое пространство : YUV
Субдискретизация насыщенности : 4:2:0
Битовая глубина : 8 бит
Тип развёртки : Прогрессивная
Метод сжатия : С потерями
Бит/(Пиксели*Кадры) : 0.238
Размер потока : 1,07 Гбайт (78%)
Библиотека кодирования : XviD 1.2.1 (UTC 2008-12-04)
Аудио
Идентификатор : 1
Формат : AC-3
Формат/Информация : Audio Coding 3
Расширение режима : CM (complete main)
Параметр Endianness формата : Big
Идентификатор кодека : 2000
Продолжительность : 1 ч. 33 м.
Вид битрейта : Постоянный
Битрейт : 448 Кбит/сек
Каналы : 6 каналов
Расположение каналов : Front: L C R, Side: L R, LFE
Частота : 48,0 КГц
Битовая глубина : 16 бит
Метод сжатия : С потерями
Размер потока : 299 Мбайт (21%)
Выравнивание : Разделение по промежуткам
Продолжительность промежутка : 42 мс. (1,00 видеокадр)
Время предзагрузки промежутка : 500 мс.

Скриншоты

[Профиль] [ЛС]
Показать сообщения:    

Текущее время: Сегодня 12:28

Часовой пояс: GMT



Вы не можете начинать темы
Вы не можете отвечать на сообщения
Вы не можете редактировать свои сообщения
Вы не можете удалять свои сообщения
Вы не можете голосовать в опросах
Вы не можете прикреплять файлы к сообщениям
Вы не можете скачивать файлы