Машина времени в джакузи / Hot Tub Time Machine (Стив Пинк / Steve Pink) [2010, США, фантастика, комедия, BDRip] [Theatrical Cut] Dub + Original Eng + MVO Ukr + Sub Rus, Eng

 
Автор Сообщение

painkiller ®

Стаж: 2 года 3 месяца

Сообщений: 582



Награды: Нет

Торрент-статистика

Создавать темы 14-Авг-2014 09:11

[Цитировать]

Машина времени в джакузи / Hot Tub Time Machine- Страна: США
Жанр: фантастика, комедия
Год выпуска: 2010
Продолжительность: 01:38:56
Перевод:

Профессиональный (дублированный)
Cубтитры: русские, английские
Оригинальная аудиодорожка: английский-Режиссер: Стив Пинк / Steve Pink
В ролях: Джон Кьюсак, Кларк Дьюк, Крэйг Робинсон, Роб Кордри, Себастиан Стэн, Линдси Фонсека, Криспин Гловер, Чеви Чейз, Чарли МакДермотт, Лиззи Каплан.
Описание: Четверо друзей собираются вместе, чтобы отдохнуть от обыденной жизни и как следует повеселиться. Однако их скучное состояние не позволяет им полностью расслабиться, и они решают принять алкоголь. Забравшись в джакузи, они распивают спиртные напитки и вспоминают различные истории, происходившие с ними в молодости. В это время проводку в джакузи замыкает, и друзья оказываются в прошлом. Они попадают в 1986 год в небольшой городок на лыжном курорте. Им повезло, ведь они вновь могут пережить самые яркие моменты в их жизни. Друзья полностью наслаждаются этим временем, а кто-то из них и вовсе получает шанс исправить ошибки молодости...-Качество видео: BDRip (источник: Blu-Ray Remux / 1080p)
Формат видео: AVI | Sample
Видео: 720x384 (1.88:1), 23.976 fps, XviD build 50 ~2245 kbps avg, 0.34 bit/pixel
Аудио 1: 48 kHz, AC3 Dolby Digital, 3/2 (L,C,R,l,r) + LFE ch, ~448.00 kbps avg | R5
Аудио 2: 48 kHz, AC3 Dolby Digital, 3/2 (L,C,R,l,r) + LFE ch, ~448.00 kbps avg | Original
Аудио 3: 48 kHz, AC3 Dolby Digital, 3/2 (L,C,R,l,r) + LFE ch, ~384.00 kbps avg | MVO R5 отдельно
Медиаинфо">

Скриншоты Медиаинфо


Общее
Формат : AVI
Формат/Информация : Audio Video Interleave
Профиль формата : OpenDML
Размер файла : 2,18 Гбайт
Продолжительность : 1 ч. 38 м.
Общий поток : 3159 Кбит/сек
Название фильма : Mashina.Vremeni.V.Dzhakuzi.2010.DUAL.BDRip.XviD.AC3.-HELLYWOOD
Режиссёр : shadow
Программа кодирования : VirtualDubMod 1.5.10.2 (build 2540/release)
Видео
Идентификатор : 0
Формат : MPEG-4 Visual
Профиль формата : Advanced Simple@L5
Параметр BVOP формата : 1
Параметр QPel формата : Нет
Параметр GMC формата : Без точки перехода
Параметр матрицы формата : Выборочная
Идентификатор кодека : XVID
Идентификатор кодека/Подсказка : XviD
Продолжительность : 1 ч. 38 м.
Битрейт : 2245 Кбит/сек
Ширина : 720 пикселей
Высота : 384 пикселя
Соотношение сторон : 1,85:1
Частота кадров : 23,976 кадра/сек
Цветовое пространство : YUV
Субдискретизация насыщенности : 4:2:0
Битовая глубина : 8 бит
Тип развёртки : Прогрессивная
Метод сжатия : С потерями
Бит/(Пиксели*Кадры) : 0.339
Размер потока : 1,55 Гбайт (71%)
Библиотека кодирования : XviD 1.2.1 (UTC 2008-12-04)
Аудио #1
Идентификатор : 1
Формат : AC-3
Формат/Информация : Audio Coding 3
Расширение режима : CM (complete main)
Параметр Endianness формата : Big
Идентификатор кодека : 2000
Продолжительность : 1 ч. 38 м.
Вид битрейта : Постоянный
Битрейт : 448 Кбит/сек
Каналы : 6 каналов
Расположение каналов : Front: L C R, Side: L R, LFE
Частота : 48,0 КГц
Битовая глубина : 16 бит
Метод сжатия : С потерями
Размер потока : 317 Мбайт (14%)
Выравнивание : Разделение по промежуткам
Продолжительность промежутка : 42 мс. (1,00 видеокадр)
Время предзагрузки промежутка : 500 мс.
Аудио #2
Идентификатор : 2
Формат : AC-3
Формат/Информация : Audio Coding 3
Расширение режима : CM (complete main)
Параметр Endianness формата : Big
Идентификатор кодека : 2000
Продолжительность : 1 ч. 38 м.
Вид битрейта : Постоянный
Битрейт : 448 Кбит/сек
Каналы : 6 каналов
Расположение каналов : Front: L C R, Side: L R, LFE
Частота : 48,0 КГц
Битовая глубина : 16 бит
Метод сжатия : С потерями
Размер потока : 317 Мбайт (14%)
Выравнивание : Разделение по промежуткам
Продолжительность промежутка : 42 мс. (1,00 видеокадр)
Время предзагрузки промежутка : 500 мс.

Дополнительно

Релиз HELLYWOOD
Рип shadow
[Профиль] [ЛС]

Создавать темы 06-Авг-2015 23:17 (спустя 11 месяцев 23 дня)

Топик был перенесен из форума Фильмы до 2014 года в форум Фильмы до 2012 года
sergej644
 

Создавать темы 12-Июн-2016 07:54 (спустя 1 год 9 месяцев)

Топик был перенесен из форума Фильмы 2011 года в форум Фильмы 2010 года
Russian Mafia
 
Показать сообщения:    

Текущее время: Сегодня 12:49

Часовой пояс: GMT



Вы не можете начинать темы
Вы не можете отвечать на сообщения
Вы не можете редактировать свои сообщения
Вы не можете удалять свои сообщения
Вы не можете голосовать в опросах
Вы не можете прикреплять файлы к сообщениям
Вы не можете скачивать файлы