Мачо и ботан 2 / 22 Jump Street (2014) WEB-DL 720p | A, D | iTunes

 
Автор Сообщение

sergej644 ®

Пол:

Стаж: 4 года 11 месяцев

Сообщений: 6039

Откуда: Soviet Union



Награды: Нет

Торрент-статистика

Создавать темы 10-Фев-2015 13:57

[Цитировать]

Мачо и ботан 2 / 22 Jump Street (2014) WEB-DL 720p | A, D | iTunes
«Копам под прикрытием крыша не нужна»
-Год выпуска: 2014
Производство: США / © 2014 Columbia Pictures Industries, Inc. and LSC Film Corporation. All Rights Reserved.
Жанр: боевик, комедия, криминал
Режиссер: Фил Лорд, Кристофер Миллер
В ролях: Джона Хилл, Ченнинг Татум, Петер Стормаре, Уайатт Расселл, Эмбер Стивенс, Джиллиан Белл, Айс Кьюб, братья Лукас, Ник Офферман, Джимми Татро
Описание:
Офицерам Шмидту и Дженко теперь предстоит работать под прикрытием в местном колледже. Однако когда Дженко встречает родственную душу в футбольной команде, а Шмидт проникает в богемную среду, они начинают сомневаться в их товариществе...

Продолжительность: 01:51:57
Перевод: Профессиональный (дублированный) [iTunes], Авторский (одноголосый закадровый) [А. Матвеев]
Cубтитры: Русские, Украинские, Английские
Качество: WEB-DL
Видео: MPEG-4 AVC/H.264, 1280x530 (2.40:1), 3 500 kbps, 23.976 fps
Аудио 1: Русский/Дублированный [iTunes], AAC / 2.0 / 165 Kbps / 48.0 KHz
Аудио 2: Русский/Дублированный [iTunes], AC3 / 5.1 / 384 Kbps / 48.0 KHz
Аудио 3: Русский/Авторский (одноголосый закадровый), AAC / 2.0 / 165 Kbps / 48.0 KHz
Аудио 4: Русский/Авторский (одноголосый закадровый)], AC3 / 2.0 / 192 Kbps / 48.0 KHz
Аудио 5: Английский/Оригинальный, AAC / 2.0 / 165 Kbps / 48.0 KHz
Аудио 6: Английский/Оригинальный, AC3 / 5.1 / 384 Kbps / 48.0 KHz

iTunes Meta Tags

Sort Name: 22 Jump Street
XID: Apple:vendor_id:2014-672899
Content ID: 878749005
Copyright: © 2014 Columbia Pictures Industries, Inc. and LSC Film Corporation. All Rights Reserved.
ScreenWriters: Майкл Бэколл, Орен Узил, Родни Ротман
Producers: Джона Хилл, Нил Х. Мориц, Ченнинг Татум
Director: Фил Лорд, Кристофер Миллер
Cast: Jonah Hill (Schmidt), Channing Tatum (Jenko), Dave Franco (Eric Molson), Ice Cube (Captain Dickson), Nick Offerman (Deputy Chief Hardy), Peter Stormare (Big Meat), Rob Riggle (Mr. Walters), Wyatt Russell (Benji), Richard Grieco (Dennis Booker), Amber Stevens (Maya), Jillian Bell (Brandi), Jimmy Tatro (Rooster), Caroline Aaron (Annie Schmidt), Joe Chrest (David Schmidt), Marc Evan Jackson (Dr. Murphy), Eddie J. Fernandez (Scarface), Dax Flame (Zack), Johnny Pemberton (Delroy), Anna Faris (Anna (30 Jump Street: Flight Academy)), Bill Hader (Culinary School Villain), Patton Oswalt (MC State Professor), Seth Rogen (Morton Schmidt), Queen Latifah (Mrs. Dickinson), Dustin Nguyen (Vietnamese Jesus)
Rating: R
Long Deion: Удачно выполнившие свое первое задание, Дженко и Шмидт получают новое. На этот раз, чтобы раскрыть преступление и наказать виновных, им придется на время стать студентами одного из американских колледжей…
Deion: Удачно выполнившие свое первое задание, Дженко и Шмидт получают новое. На этот раз, чтобы раскрыть преступление и наказать виновных, им придется на время стать студентами одного из американских колледжей…
Release Date: 2014-06-13T07:00:00Z
Genre: Action & Adventure
Artist: Phil Lord & Christopher Miller
Name: Мачо и ботан 2
Comments: «Копам под прикрытием крыша не нужна»

MediaInfo

General
Complete name : C:Downloads22.Jump.Street.2014.WEB-DL.720p.D.m4v
Format : MPEG-4
Codec ID : M4V
File size : 3.86 GiB
Duration : 1h 51mn
Overall bit rate mode : Variable
Overall bit rate : 4 941 Kbps
Movie name : Мачо и ботан 2
Performer : Phil Lord & Christopher Miller
Genre : Action & Adventure
ContentType : Short Film
Deion : Удачно выполнившие свое первое задание, Дженко и Шмидт получают новое. На этот раз, чтобы раскрыть преступление и наказать виновных, им придется на время стать студентами одного из американских колледжей…
Recorded date : UTC 2014-06-13 07:00:00
Encoded date : UTC 2014-10-09 20:25:39
Tagged date : UTC 2014-10-09 20:38:02
Copyright : © 2014 Columbia Pictures Industries, Inc. and LSC Film Corporation. All Rights Reserved.
Service name : AOL
Cover : Yes
Comment : «Копам под прикрытием крыша не нужна»
ContentRating : mpaa|R|400|
Title/Sort : 22 Jump Street
LongDeion : Удачно выполнившие свое первое задание, Дженко и Шмидт получают новое. На этот раз, чтобы раскрыть преступление и наказать виновных, им придется на время стать студентами одного из американских колледжей…
HDVideo : Yes
AppleStoreAccountType : AOL
AppleStoreCountry : Unknown Country
AppleStoreCatalogID : 878749005
Vendor : Apple:vendor_id:2014-672899
Video
ID : 1
Format : AVC
Format/Info : Advanced Video Codec
Format profile : Main@L3.1
Format settings, CABAC : Yes
Format settings, ReFrames : 4 frames
Codec ID : avc1
Codec ID/Info : Advanced Video Coding
Duration : 1h 51mn
Bit rate : 3 500 Kbps
Maximum bit rate : 17.9 Mbps
Width : 1 280 pixels
Height : 530 pixels
Display aspect ratio : 2.40:1
Frame rate mode : Constant
Frame rate : 23.976 fps
Color space : YUV
Chroma subsampling : 4:2:0
Bit depth : 8 bits
Scan type : Progressive
Bits/(Pixel*Frame) : 0.215
Stream size : 2.71 GiB (70%)
Title : 22.Jump.Street.2014.720p.WEB_DL.AAC2.0.H264_RARBG
Writing library : x264 core 142 r2479 dd79a61
Encoding settings : cabac=1 / ref=2 / deblock=1:0:0 / analyse=0x1:0x111 / me=umh / subme=8 / psy=1 / psy_rd=1.00:0.00 / mixed_ref=1 / me_range=16 / chroma_me=1 / trellis=1 / 8x8dct=0 / cqm=0 / deadzone=21,11 / fast_pskip=1 / chroma_qp_offset=-2 / threads=12 / lookahead_threads=2 / sliced_threads=0 / nr=0 / decimate=1 / interlaced=0 / bluray_compat=0 / constrained_intra=0 / bframes=3 / b_pyramid=2 / b_adapt=2 / b_bias=0 / direct=3 / weightb=1 / open_gop=0 / weightp=2 / keyint=240 / keyint_min=24 / scenecut=40 / intra_refresh=0 / rc_lookahead=50 / rc=abr / mbtree=1 / bitrate=3500 / ratetol=1.0 / qcomp=0.60 / qpmin=0 / qpmax=69 / qpstep=4 / vbv_maxrate=14000 / vbv_bufsize=14000 / nal_hrd=none / filler=0 / ip_ratio=1.40 / aq=1:1.00
Language : English
Encoded date : UTC 2014-10-09 20:25:39
Tagged date : UTC 2014-10-09 20:26:31
Color primaries : BT.709
Transfer characteristics : BT.709
Matrix coefficients : BT.709
Audio #1
ID : 2
Format : AAC
Format/Info : Advanced Audio Codec
Format profile : LC
Codec ID : 40
Duration : 1h 51mn
Bit rate mode : Variable
Bit rate : 165 Kbps
Maximum bit rate : 202 Kbps
Channel(s) : 2 channels
Channel positions : Front: L R
Sampling rate : 48.0 KHz
Compression mode : Lossy
Stream size : 132 MiB (3%)
Title : DUB [iTunes]
Language : Russian
Encoded date : UTC 2014-10-09 20:26:08
Tagged date : UTC 2014-10-09 20:26:31
Audio #2
ID : 3
Format : AC-3
Format/Info : Audio Coding 3
Mode extension : CM (complete main)
Format settings, Endianness : Big
Codec ID : ac-3
Duration : 1h 51mn
Bit rate mode : Constant
Bit rate : 384 Kbps
Channel(s) : 6 channels
Channel positions : Front: L C R, Side: L R, LFE
Sampling rate : 48.0 KHz
Bit depth : 16 bits
Compression mode : Lossy
Stream size : 308 MiB (8%)
Title : DUB [iTunes]
Language : Russian
Encoded date : UTC 2014-10-09 20:26:13
Tagged date : UTC 2014-10-09 20:26:31
Audio #3
ID : 4
Format : AAC
Format/Info : Advanced Audio Codec
Format profile : LC
Codec ID : 40
Duration : 1h 51mn
Bit rate mode : Variable
Bit rate : 167 Kbps
Maximum bit rate : 205 Kbps
Channel(s) : 2 channels
Channel positions : Front: L R
Sampling rate : 48.0 KHz
Compression mode : Lossy
Stream size : 134 MiB (3%)
Title : AAC VO [Matveev]
Language : Russian
Encoded date : UTC 2014-10-09 20:26:16
Tagged date : UTC 2014-10-09 20:26:31
Audio #4
ID : 5
Format : AC-3
Format/Info : Audio Coding 3
Mode extension : CM (complete main)
Format settings, Endianness : Big
Codec ID : ac-3
Duration : 1h 51mn
Bit rate mode : Constant
Bit rate : 192 Kbps
Channel(s) : 2 channels
Channel positions : Front: L R
Sampling rate : 48.0 KHz
Bit depth : 16 bits
Compression mode : Lossy
Stream size : 154 MiB (4%)
Title : AC3 VO [Matveev]
Language : Russian
Encoded date : UTC 2014-10-09 20:26:21
Tagged date : UTC 2014-10-09 20:26:31
Audio #5
ID : 6
Format : AAC
Format/Info : Advanced Audio Codec
Format profile : LC
Codec ID : 40
Duration : 1h 51mn
Bit rate mode : Variable
Bit rate : 163 Kbps
Maximum bit rate : 207 Kbps
Channel(s) : 2 channels
Channel positions : Front: L R
Sampling rate : 48.0 KHz
Compression mode : Lossy
Stream size : 131 MiB (3%)
Title : original
Language : English
Encoded date : UTC 2014-10-09 20:26:23
Tagged date : UTC 2014-10-09 20:26:31
Audio #6
ID : 7
Format : AC-3
Format/Info : Audio Coding 3
Mode extension : CM (complete main)
Format settings, Endianness : Big
Codec ID : ac-3
Duration : 1h 51mn
Bit rate mode : Constant
Bit rate : 384 Kbps
Channel(s) : 2 channels
Channel positions : Front: L R
Sampling rate : 48.0 KHz
Bit depth : 16 bits
Compression mode : Lossy
Stream size : 308 MiB (8%)
Title : original
Language : English
Encoded date : UTC 2014-10-09 20:26:28
Tagged date : UTC 2014-10-09 20:26:31
Text #1
ID : 8
Format : Timed Text
Muxing mode : sbtl
Codec ID : tx3g
Duration : 1h 46mn
Bit rate mode : Variable
Bit rate : 1 bps
Stream size : 1 002 Bytes (0%)
Title : Forced
Language : Russian
Encoded date : UTC 2014-10-09 20:26:31
Tagged date : UTC 2014-10-09 20:26:31
Text #2
ID : 9
Format : Timed Text
Muxing mode : sbtl
Codec ID : tx3g
Duration : 1h 51mn
Bit rate mode : Variable
Bit rate : 157 bps
Stream size : 129 KiB (0%)
Title : by Doctor Joker
Language : Russian
Encoded date : UTC 2014-10-09 20:26:31
Tagged date : UTC 2014-10-09 20:26:31
Text #3
ID : 10
Format : Timed Text
Muxing mode : sbtl
Codec ID : tx3g
Duration : 1h 51mn
Bit rate mode : Variable
Bit rate : 98 bps
Stream size : 80.1 KiB (0%)
Language : Ukrainian
Encoded date : UTC 2014-10-09 20:26:31
Tagged date : UTC 2014-10-09 20:26:31
Text #4
ID : 11
Format : Timed Text
Muxing mode : sbtl
Codec ID : tx3g
Duration : 1h 51mn
Bit rate mode : Variable
Bit rate : 115 bps
Stream size : 94.2 KiB (0%)
Language : English
Encoded date : UTC 2014-10-09 20:26:31
Tagged date : UTC 2014-10-09 20:26:31
Menu
ID : 12
Codec ID : text
Duration : 1h 51mn
Encoded date : UTC 2014-10-09 20:27:20
Tagged date : UTC 2014-10-09 20:27:20
Bit rate mode : VBR

Screenshots

[Профиль] [ЛС]
Кто просматривает тему:

Показать сообщения:    

Текущее время: Сегодня 16:36

Часовой пояс: GMT



Вы не можете начинать темы
Вы не можете отвечать на сообщения
Вы не можете редактировать свои сообщения
Вы не можете удалять свои сообщения
Вы не можете голосовать в опросах
Вы не можете прикреплять файлы к сообщениям
Вы не можете скачивать файлы