Мачо и ботан 2 / 22 Jump Street (2014) BDRip [H.264]

 
Автор Сообщение

sergej644 ®

Пол:

Стаж: 4 года 11 месяцев

Сообщений: 6046

Откуда: Soviet Union



Награды: Нет

Торрент-статистика

Создавать темы 11-Окт-2014 10:56

[Цитировать]

-Мачо и ботан 2 / 22 Jump Street (2014) BDRip-AVC [H.264]-Год выпуска: 2014
Производство: США, 33andout, Cannell Studios
Жанр: Боевик, Комедия, Криминал
Дата мировой премьеры: 5 июня 2014
Дата российской премьеры: 3 июля 2014
Дата выхода DVD релиза: 16 октября 2014, «CP Дистрибуция»
Режиссер: Фил Лорд, Кристофер Миллер
Продюсер: Джона Хилл, Нил Х. Мориц, Ченнинг Татум
Актеры: Джона Хилл, Ченнинг Татум, Петер Стормаре, Уайатт Расселл, Эмбер Стивенс, Джиллиан Белл, Айс Кьюб, Ник Офферман, Джимми Татро
Описание фильма:
Если вы любители посидеть дома в жизнерадостной компании перед ТВ, включить комедию, которая создаст колики в животе, то это непосредственно тот фильм, который вы искали для этой цели. Максимальное удовольствие и множество эмоций приходит вместе с просмотром данной комедии. Сюжет демонстрирует, как нашим двум несменным героям - офицерам Шмиту и Дженко - предстоит столкнуться с очередной задачей, но помимо прочего они смогут испытать на прочность их дружбу. Наших офицеров отправляют на секретное задание в колледж под прикрытием студентами. Им предстоит нелегкая задача влиться в коллектив, чтоб не выдать себя… Для этого Дженко решает стать частью клуба, специализирующегося на игре в футбол, а Шмит входит в богемную среду учащихся ребят. У каждого из них возникают новые знакомства, новые интересы и из-за этого потихоньку приходит конец их дружбе! Смогут ли наши герои выстоять перед такой трудностью и сохранить свою дружбу?..
Перевод: Дублированный [Лицензия]
Субтитры: Вшитые отключаемые
Язык субтитров: Русские (форсированные, полные), английские (full)

Продолжительность: 01:51:56
Качество видео: BDRip [H.264]
Видеокодек: MPEG-4 AVC/H.264
Битрейт видео: ~1884 kb/s
Размер кадра: 1024 х 424
Аудио 1: AC3, 48,0 KHz, 6 ch, 448 Kbps, (Русский, Дубляж)
Аудио 2: AC3, 48,0 KHz, 6 ch, 448 Kbps, (Английский)

MediaInfo:

Формат : Matroska
Версия формата : Version 4 / Version 2
Размер файла : 2,18 Гбайт
Продолжительность : 1 ч. 51 м.
Общий поток : 2782 Кбит/сек
Название фильма : Macho.i.botan.2.2014.BDRip-AVC [Tellurian 1]
Дата кодирования : UTC 2014-10-11 09:09:21
Программа кодирования : mkvmerge v7.2.0 ('On Every Street') 64bit built on Sep 13 2014 15:52:10
Библиотека кодирования : libebml v1.3.0 + libmatroska v1.4.1
DURATION : 01:50:39.925000000
NUMBER_OF_FRAMES : 2014
NUMBER_OF_BYTES : 73275
_STATISTICS_WRITING_APP : mkvmerge v7.2.0 ('On Every Street') 64bit built on Sep 13 2014 15:52:10
_STATISTICS_WRITING_DATE_UTC : 2014-10-11 09:09:21
_STATISTICS_TAGS : BPS DURATION NUMBER_OF_FRAMES NUMBER_OF_BYTES
Видео
Идентификатор : 1
Формат : AVC
Формат/Информация : Advanced Video Codec
Профиль формата : [url=mailto:High@L4.1]High@L4.1[/url]
Параметр CABAC формата : Да
Параметр ReFrames формата : 6 кадров
Идентификатор кодека : V_MPEG4/ISO/AVC
Продолжительность : 1 ч. 51 м.
Битрейт : 1884 Кбит/сек
Ширина : 1024 пикселя
Высота : 424 пикселя
Соотношение сторон : 2,40:1
Режим частоты кадров : Постоянный
Частота кадров : 23,976 кадра/сек
Цветовое пространство : YUV
Субдискретизация насыщенности : 4:2:0
Битовая глубина : 8 бит
Тип развёртки : Прогрессивная
Бит/(Пиксели*Кадры) : 0.181
Размер потока : 1,43 Гбайт (66%)
Библиотека кодирования : x264 core 142 r2431 ac76440
Настройки программы : cabac=1 / ref=6 / deblock=1:-1:-1 / analyse=0x3:0x133 / me=umh / subme=11 / psy=1 / psy_rd=1.00:0.08 / mixed_ref=1 / me_range=32 / chroma_me=1 / trellis=2 / 8x8dct=1 / cqm=0 / deadzone=21,11 / fast_pskip=0 / chroma_qp_offset=-3 / threads=6 / lookahead_threads=1 / sliced_threads=0 / nr=0 / decimate=0 / interlaced=0 / bluray_compat=0 / constrained_intra=0 / bframes=10 / b_pyramid=2 / b_adapt=2 / b_bias=0 / direct=3 / weightb=1 / open_gop=0 / weightp=2 / keyint=240 / keyint_min=23 / scenecut=40 / intra_refresh=0 / rc_lookahead=60 / rc=2pass / mbtree=1 / bitrate=1884 / ratetol=1.0 / qcomp=0.70 / qpmin=0 / qpmax=69 / qpstep=4 / cplxblur=20.0 / qblur=0.5 / vbv_maxrate=50000 / vbv_bufsize=62500 / nal_hrd=none / filler=0 / ip_ratio=1.40 / aq=1:0.80
Default : Да
Forced : Нет
Аудио #1
Идентификатор : 2
Формат : AC-3
Формат/Информация : Audio Coding 3
Расширение режима : CM (complete main)
Параметр Endianness формата : Big
Идентификатор кодека : A_AC3
Продолжительность : 1 ч. 51 м.
Вид битрейта : Постоянный
Битрейт : 448 Кбит/сек
Каналы : 6 каналов
Расположение каналов : Front: L C R, Side: L R, LFE
Частота : 48,0 КГц
Битовая глубина : 16 бит
Метод сжатия : С потерями
Размер потока : 359 Мбайт (16%)
Заголовок : AC3 5.1 @ 448 kbps - DUB [Blu-ray CEE]
Язык : Russian
Default : Да
Forced : Нет
Аудио #2
Идентификатор : 3
Формат : AC-3
Формат/Информация : Audio Coding 3
Расширение режима : CM (complete main)
Параметр Endianness формата : Big
Идентификатор кодека : A_AC3
Продолжительность : 1 ч. 51 м.
Вид битрейта : Постоянный
Битрейт : 448 Кбит/сек
Каналы : 6 каналов
Расположение каналов : Front: L C R, Side: L R, LFE
Частота : 48,0 КГц
Битовая глубина : 16 бит
Метод сжатия : С потерями
Размер потока : 359 Мбайт (16%)
Заголовок : AC3 5.1 @ 448 kbps - [Blu-ray CEE]
Язык : English
Default : Нет
Forced : Нет
Текст #1
Идентификатор : 4
Формат : UTF-8
Идентификатор кодека : S_TEXT/UTF8
Идентификатор кодека/Информация : UTF-8 Plain Text
Заголовок : Forced
Язык : Russian
Default : Да
Forced : Нет
Текст #2
Идентификатор : 5
Формат : UTF-8
Идентификатор кодека : S_TEXT/UTF8
Идентификатор кодека/Информация : UTF-8 Plain Text
Заголовок : Full
Язык : Russian
Default : Нет
Forced : Нет
Текст #3
Идентификатор : 6
Формат : UTF-8
Идентификатор кодека : S_TEXT/UTF8
Идентификатор кодека/Информация : UTF-8 Plain Text
Заголовок : Full
Язык : English
Default : Нет
Forced : Нет
Меню
00:00:00.000 : en:Chapter 01
00:06:21.798 : en:Chapter 02
00:13:09.371 : en:Chapter 03
00:19:57.362 : en:Chapter 04
00:26:32.173 : en:Chapter 05
00:31:30.096 : en:Chapter 06
00:36:47.246 : en:Chapter 07
00:43:49.251 : en:Chapter 08
00:51:46.394 : en:Chapter 09
00:58:58.409 : en:Chapter 10
01:07:30.588 : en:Chapter 11
01:16:28.250 : en:Chapter 12
01:23:02.602 : en:Chapter 13
01:29:51.677 : en:Chapter 14
01:35:25.469 : en:Chapter 15
01:41:57.194 : en:Chapter 16
Скриншоты:

Время раздачи: 24/7 (круглосуточно)
[Профиль] [ЛС]
Кто просматривает тему:

Показать сообщения:    

Текущее время: Сегодня 13:49

Часовой пояс: GMT



Вы не можете начинать темы
Вы не можете отвечать на сообщения
Вы не можете редактировать свои сообщения
Вы не можете удалять свои сообщения
Вы не можете голосовать в опросах
Вы не можете прикреплять файлы к сообщениям
Вы не можете скачивать файлы