Мачете убивает / Machete Kills (2013) BDRip 1080p

 
Автор Сообщение

sergej644 ®

Пол:

Стаж: 4 года 11 месяцев

Сообщений: 6040

Откуда: Soviet Union



Награды: Нет

Торрент-статистика

Создавать темы 21-Янв-2015 22:52

[Цитировать]

Информация о фильме
Название: Мачете убивает
Оригинальное название: Machete Kills
Год выхода: 2013
Жанр: боевик, комедия
Режиссер: Роберт Родригес
В ролях: Дэнни Трехо, Мишель Родригес, Эмбер Хёрд, Демиан Бишир, Мэл Гибсон, София Вергара, Чарли Шин, Леди Гага, Алекса Вега, Антонио Бандерас, Кьюба Гудинг мл., Джессика Альба
О фильме:
Правительство США вербует Мачете для миссии, которую не под силу выполнить простому смертному. Мачете прорывается в Мексику, чтобы схватить безумного лидера карательного отряда и эксцентричного миллиардера, торгующего оружием, который, в свою очередь, лелеет мечту начать войну планетарного масштаба и запустить смертельно опасное оружие в космос. И только Мачете может предотвратить этот глобальный хаос.

Выпущено: США, Россия
Студия: Open Road Films
Продолжительность: 01:47:59
Перевод: Дублированный (лицензия)
Файл
Кодек: x264
Качество: BDRip (источник: Blu-ray Disc)
Видео: 1920x1034 (1,85:1), 24.000 fps (True24p), 9646 kbps
Аудио #1: AC-3, 6 ch, 640 kbps (Rus)
Субтитры: Нет

Скриншоты

MI

Общее
Уникальный идентификатор : 241919130568548700997075650616479904197 (0xB5FFEE054A13FF298DA60A474446F1C5)
Полное имя : F:Machete.Kills.2013.BDRip.1080p.Rus.mkv
Формат : Matroska
Версия формата : Version 2
Размер файла : 7,76 Гбайт
Продолжительность : 1 ч. 47 м.
Общий поток : 10,3 Мбит/сек
Название фильма : Мачете убивает / Machete Kills (2013)
Дата кодирования : UTC 2013-12-19 14:08:36
Программа кодирования : mkvmerge v5.8.0 ('No Sleep / Pillow') built on Sep 2 2012 15:37:04
Библиотека кодирования : libebml v1.2.3 + libmatroska v1.3.0
Attachment : Yes
Видео
Идентификатор : 1
Формат : AVC
Формат/Информация : Advanced Video Codec
Профиль формата : High@L4.1
Параметр CABAC формата : Да
Параметр ReFrames формата : 4 кадра
Идентификатор кодека : V_MPEG4/ISO/AVC
Продолжительность : 1 ч. 47 м.
Битрейт : 9646 Кбит/сек
Ширина : 1920 пикселей
Высота : 1034 пикселя
Соотношение сторон : 1,85:1
Режим частоты кадров : Постоянный
Частота кадров : 24,000 кадра/сек
Цветовое пространство : YUV
Субдискретизация насыщенности : 4:2:0
Битовая глубина : 8 бит
Тип развёртки : Прогрессивная
Бит/(Пиксели*Кадры) : 0.202
Размер потока : 7,12 Гбайт (92%)
Заголовок : Release by N1NT3NDO
Библиотека кодирования : x264 core 140 r2377 1ca7bb9
Настройки программы : cabac=1 / ref=4 / deblock=1:-3:-3 / analyse=0x3:0x133 / me=umh / subme=11 / psy=1 / psy_rd=1.00:0.00 / mixed_ref=1 / me_range=32 / chroma_me=1 / trellis=2 / 8x8dct=1 / cqm=0 / deadzone=21,11 / fast_pskip=0 / chroma_qp_offset=-2 / threads=12 / lookahead_threads=1 / sliced_threads=0 / nr=0 / decimate=0 / interlaced=0 / bluray_compat=0 / constrained_intra=0 / bframes=6 / b_pyramid=2 / b_adapt=2 / b_bias=0 / direct=3 / weightb=1 / open_gop=0 / weightp=2 / keyint=240 / keyint_min=24 / scenecut=40 / intra_refresh=0 / rc=2pass / mbtree=0 / bitrate=9646 / ratetol=1.0 / qcomp=0.60 / qpmin=0 / qpmax=69 / qpstep=4 / cplxblur=20.0 / qblur=0.5 / ip_ratio=1.40 / pb_ratio=1.30 / aq=1:1.00
Язык : English
Default : Да
Forced : Нет
Аудио
Идентификатор : 2
Формат : AC-3
Формат/Информация : Audio Coding 3
Расширение режима : CM (complete main)
Параметр Endianness формата : Big
Идентификатор кодека : A_AC3
Продолжительность : 1 ч. 47 м.
Вид битрейта : Постоянный
Битрейт : 640 Кбит/сек
Каналы : 6 каналов
Расположение каналов : Front: L C R, Side: L R, LFE
Частота : 48,0 КГц
Битовая глубина : 16 бит
Метод сжатия : С потерями
Размер потока : 494 Мбайт (6%)
Заголовок : Rus
Язык : Russian
Default : Да
Forced : Нет
Меню
00:00:00.000 : ru:Chapter 1
00:12:23.708 : ru:Chapter 2
00:25:35.541 : ru:Chapter 3
00:39:42.416 : ru:Chapter 4
00:52:47.166 : ru:Chapter 5
01:07:03.583 : ru:Chapter 6
01:20:41.375 : ru:Chapter 7
01:39:35.750 : ru:Chapter 8

x264

x264 [info]: frame I:1771 Avg QP:15.65 size:199884
x264 [info]: frame P:49356 Avg QP:17.75 size: 72262
x264 [info]: frame B:104380 Avg QP:19.59 size: 37261
x264 [info]: consecutive B-frames: 9.9% 9.1% 16.8% 20.1% 15.3% 25.5% 3.2%
[Профиль] [ЛС]
Показать сообщения:    

Текущее время: Сегодня 08:49

Часовой пояс: GMT



Вы не можете начинать темы
Вы не можете отвечать на сообщения
Вы не можете редактировать свои сообщения
Вы не можете удалять свои сообщения
Вы не можете голосовать в опросах
Вы не можете прикреплять файлы к сообщениям
Вы не можете скачивать файлы