Маугли (Роман Давыдов) [1973, мультфильм, приключения, семейный, экранизация, DVB] Полнометражная версия

 
Автор Сообщение

reversefile ®

Пол:

Стаж: 4 года 5 месяцев

Сообщений: 842

Откуда: ReverseFile.org



Награды: Нет

Торрент-статистика

Создавать темы 21-Июл-2014 18:12

[Цитировать]

Маугли-Страна: СССР
Жанр: мультфильм, приключения, семейный, экранизация
Продолжительность: 01:06:56
Год выпуска: 1973
Русские субтитры: нет-Режиссёр: Роман Давыдов
Роли озвучивали: Владимир Ушаков, Сергей Мартинсон, Александр Назаров, Лев Любецкий, Людмила Касаткина, Анатолий Папанов, А. Шабарин, Люсьена Овчинникова, Степан Бубнов-Описание: Одноимённая экранизация повести Киплинга о мальчике, воспитанном волчьей стаей, ставшим своим в джунглях, победившим своего врага — тигра Шерхана, совершившем ещё многие подвиги, и, в конце концов, ушедшем к людям.-Доп. информация: Монтажный фильм на основе пяти фильмов: "Ракша", "Похищение", "Последняя охота Акелы", "Битва", "Возвращение к людям". В 1973 году серии были смонтированы в единый полнометражный фильм.- -Качество: DVB
Формат: MPG
Видео: 704x576 (4:3), 25.000 fps, MPEG-2 Video, ~2534 Kbps, 0.250 bits/pixel
Аудио: 48.0 KHz, MPEG-1 Audio layer 2, 2 ch, 192 Kbps
Субтитры: отсутствуют

Подробные технические данные

GeneralComplete name : Маугли.mpgFormat : MPEG-PSFile size : 1.30 GiBDuration : 1h 6mnOverall bit rate mode : VariableOverall bit rate : 2 781 Kbps
VideoID : 224 (0xE0)Format : MPEG VideoFormat version : Version 2Format profile : Main@MainFormat settings, BVOP : YesFormat settings, Matrix : CustomFormat settings, GOP : VariableDuration : 1h 6mnBit rate mode : VariableBit rate : 2 534 KbpsMaximum bit rate : 15.0 MbpsWidth : 704 pixelsHeight : 576 pixelsDisplay aspect ratio : 4:3Frame rate : 25.000 fpsStandard : PALColor space : YUVChroma subsampling : 4:2:0Bit depth : 8 bitsScan type : InterlacedScan order : Top Field FirstCompression mode : LossyBits/(Pixel*Frame) : 0.250Time code of first frame : 00:00:00:00Time code source : Group of pictures headerStream size : 1.18 GiB (91%)
AudioID : 192 (0xC0)Format : MPEG AudioFormat version : Version 1Format profile : Layer 2Duration : 1h 6mnBit rate mode : ConstantBit rate : 192 KbpsChannel(s) : 2 channelsSampling rate : 48.0 KHzCompression mode : LossyStream size : 91.9 MiB (7%)
[Профиль] [ЛС]
Показать сообщения:    

Текущее время: Сегодня 14:42

Часовой пояс: GMT



Вы не можете начинать темы
Вы не можете отвечать на сообщения
Вы не можете редактировать свои сообщения
Вы не можете удалять свои сообщения
Вы не можете голосовать в опросах
Вы не можете прикреплять файлы к сообщениям
Вы не можете скачивать файлы