Матрица / The Matrix (1999) HDTV 1080i

 
Автор Сообщение

sergej644 ®

Пол:

Стаж: 4 года 11 месяцев

Сообщений: 6043

Откуда: Soviet Union



Награды: Нет

Торрент-статистика

Создавать темы 26-Фев-2015 21:03

[Цитировать]

Информация о фильме
Название: Матрица
Оригинальное название: The Matrix
Год выхода: 1999
Жанр: фантастика, боевик, триллер
Режиссер: Энди Вачовски, Ларри Вачовски
В ролях: Киану Ривз, Лоуренс Фишберн, Кэрри-Энн Мосс, Глория Фостер, Хьюго Уивинг, Джо Пантолиано, Маркус Чонг, Пол Годдард, Роберт Тэйлор, Джулиэн Араханга, Мэтт Доран, Белинда МакКлори, Энтони Рэй Паркер, Дэвид Эстон, Марк Грэй, Ада Никодему, Роуэн Уитт, Эленор Уитт, Билл Янг, Фиона Джонсон, Стив Додд, Лоуренс Вудворд, Бернард Леджер, Крис Скотт
О фильме: Жизнь Томаса Андерсона разделена на две части: днём он самый обычный офисный работник, получающий нагоняи от начальства, а ночью превращается в хакера по имени Нео, и нет места в сети, куда он не смог бы дотянуться. Но однажды всё меняется — герой, сам того не желая, узнаёт страшную правду: всё, что его окружает — не более, чем иллюзия, Матрица, а люди — всего лишь источник питания для искусственного интеллекта, поработившего человечество. И только Нео под силу изменить расстановку сил в этом ставшем вдруг чужим и страшным мире.

Страна: США, Австралия
Продолжительность: 02:09:40
Перевод: Дублированный
+ Любительский (одноголосый, закадровый) VHS
+ Авторский (одноголосый, закадровый) Андрей Гаврилов
Файл
Кодек: MPEG-4
Качество: HDTV 1080i
Видео: 1920x1080 (16:9), 13900kbps, 23,976fps
Аудио 1: AC3 2ch, 48kHz, 640kbps, русский (VO VHS)
Аудио 2: AC3 6ch, 48kHz, 640kbps, русский (дубляж)
Аудио 3: DTS 6ch, 48kHz, 755kbps, русский (Гаврилов)
Аудио 4: DTS 6ch, 48kHz, 1510kbps, английский (оригинал)
Субтитры: русские, английские

Скриншоты

MediaInfo

Общее
Уникальный идентификатор : 175246602569066244335975576247258565659 (0x83D74498A1F5359BA60734277B83CC1B)
Полное имя : Matrix.1999.x264.HDTV.mkv
Формат : Matroska
Версия формата : Version 2
Размер файла : 16,9 Гбайт
Продолжительность : 2 ч. 09 м.
Общий поток : 17,8 Мбит/сек
Дата кодирования : UTC 2013-03-17 08:26:11
Программа кодирования : mkvmerge v5.5.0 ('Healer') built on Apr 6 2012 21:43:24
Библиотека кодирования : libebml v1.2.3 + libmatroska v1.3.0
Видео
Идентификатор : 1
Формат : AVC
Формат/Информация : Advanced Video Codec
Профиль формата : Main@L4.0
Параметр CABAC формата : Да
Параметр ReFrames формата : 2 кадра
Параметр GOP формата : M=4, N=30
Идентификатор кодека : V_MPEG4/ISO/AVC
Продолжительность : 2 ч. 09 м.
Битрейт : 13,9 Мбит/сек
Ширина : 1920 пикселей
Высота : 1080 пикселей
Соотношение сторон : 16:9
Соотношение сторон в оригинале : 16:9
Режим частоты кадров : Постоянный
Частота кадров : 23,976 кадра/сек
Цветовое пространство : YUV
Субдискретизация насыщенности : 4:2:0
Битовая глубина : 8 бит
Тип развёртки : Прогрессивная
Бит/(Пиксели*Кадры) : 0.280
Размер потока : 13,2 Гбайт (78%)
Заголовок : Matrix 1999 HDTV
Default : Да
Forced : Нет
Аудио #1
Идентификатор : 2
Формат : AC-3
Формат/Информация : Audio Coding 3
Расширение режима : CM (complete main)
Параметр Endianness формата : Big
Идентификатор кодека : A_AC3
Продолжительность : 2 ч. 09 м.
Вид битрейта : Постоянный
Битрейт : 640 Кбит/сек
Каналы : 2 канала
Расположение каналов : Front: L R
Частота : 48,0 КГц
Битовая глубина : 16 бит
Метод сжатия : С потерями
Размер потока : 624 Мбайт (4%)
Заголовок : Rus AC3 2ch 48kHz - 640 kbps - 16bit (VO VHS)
Язык : Russian
Default : Да
Forced : Нет
Аудио #2
Идентификатор : 3
Формат : AC-3
Формат/Информация : Audio Coding 3
Расширение режима : CM (complete main)
Параметр Endianness формата : Big
Идентификатор кодека : A_AC3
Продолжительность : 2 ч. 09 м.
Вид битрейта : Постоянный
Битрейт : 640 Кбит/сек
Каналы : 6 каналов
Расположение каналов : Front: L C R, Side: L R, LFE
Частота : 48,0 КГц
Битовая глубина : 16 бит
Метод сжатия : С потерями
Размер потока : 624 Мбайт (4%)
Заголовок : Rus AC3 6ch 48kHz - 640 kbps - 16bit (DUB)
Язык : Russian
Default : Нет
Forced : Нет
Аудио #3
Идентификатор : 4
Формат : DTS
Формат/Информация : Digital Theater Systems
Режим : 16
Параметр Endianness формата : Big
Идентификатор кодека : A_DTS
Продолжительность : 2 ч. 09 м.
Вид битрейта : Постоянный
Битрейт : 755 Кбит/сек
Каналы : 6 каналов
Расположение каналов : Front: L C R, Side: L R, LFE
Частота : 48,0 КГц
Битовая глубина : 24 бит
Метод сжатия : С потерями
Задержка видео : 11 мс.
Размер потока : 735 Мбайт (4%)
Заголовок : Rus AC3 6ch 48kHz - 755 kbps - 24bit (VO Gavrilov)
Язык : Russian
Default : Нет
Forced : Нет
Аудио #4
Идентификатор : 5
Формат : DTS
Формат/Информация : Digital Theater Systems
Режим : 16
Параметр Endianness формата : Big
Идентификатор кодека : A_DTS
Продолжительность : 2 ч. 09 м.
Вид битрейта : Постоянный
Битрейт : 1510 Кбит/сек
Каналы : 6 каналов
Расположение каналов : Front: L C R, Side: L R, LFE
Частота : 48,0 КГц
Битовая глубина : 24 бит
Метод сжатия : С потерями
Задержка видео : 11 мс.
Размер потока : 1,44 Гбайт (8%)
Заголовок : Eng DTS 6ch 48kHz - 1510 kbps - 24bit (ORIGINAL)
Язык : English
Default : Нет
Forced : Нет
Текст #1
Идентификатор : 6
Формат : UTF-8
Идентификатор кодека : S_TEXT/UTF8
Идентификатор кодека/Информация : UTF-8 Plain Text
Заголовок : Rus Text - UTF-8
Язык : Russian
Default : Нет
Forced : Нет
Текст #2
Идентификатор : 7
Формат : UTF-8
Идентификатор кодека : S_TEXT/UTF8
Идентификатор кодека/Информация : UTF-8 Plain Text
Заголовок : Eng Text - UTF-8
Язык : English
Default : Нет
Forced : Нет
[Профиль] [ЛС]
Показать сообщения:    

Текущее время: Сегодня 12:42

Часовой пояс: GMT



Вы не можете начинать темы
Вы не можете отвечать на сообщения
Вы не можете редактировать свои сообщения
Вы не можете удалять свои сообщения
Вы не можете голосовать в опросах
Вы не можете прикреплять файлы к сообщениям
Вы не можете скачивать файлы