Матрица / The Matrix (1999) BDRip 720p от New-Team | D, P, P2, A

 
Автор Сообщение

sergej644 ®

Пол:

Стаж: 4 года 11 месяцев

Сообщений: 6045

Откуда: Soviet Union



Награды: Нет

Торрент-статистика

Создавать темы 29-Янв-2015 21:26

[Цитировать]

«Добро пожаловать в реальный мир»- Страна: США
Производство: Groucho II Film Partnership, Silver Pictures, Village Roadshow Pictures, Warner Bros. Pictures Co.
Жанр: фантастика, боевик
Год выпуска: 1999
Продолжительность: 02:16:17
Перевод: Профессиональный (полное дублирование), Профессиональный (многоголосый закадровый), Двухголосый закадровый П.Гланц и И.Королёва, Одноголосый закадровый CDV, Авторский (одноголосый закадровый) (Андрей Гаврилов, Дмитрий Пучков «Гоблин», Дмитрий Пучков «Гоблин» (пародия))
Оригинальная аудиодорожка: английский
Cубтитры: русский, русский (Гоблин), английский
Режиссер: Энди Вачовски / Andy Wachowski, Лана Вачовски / Lana Wachowski
В ролях:
Киану Ривз, Лоуренс Фишбёрн, Керри-Энн Мосс, Хьюго Уивинг, Глория Фостер, Джо Пантолиано, Маркус Чонг, Пол Годдард, Роберт Тэйлор, Джулиэн Араханга, Мэтт Доран, Белинда МакКлори, Энтони Рэй Паркер, Стив Додд...
Роли дублировали:
Всеволод Кузнецов, Владимир Вихров, Елена Соловьева, Владимир Антоник, Леонид Белозорович...
Описание:
Жизнь Томаса Андерсона разделена на две части: днём он самый обычный офисный работник, получающий нагоняи от начальства, а ночью превращается в хакера по имени Нео, и нет места в сети, куда он не смог бы дотянуться. Но однажды всё меняется — герой, сам того не желая, узнаёт страшную правду: всё, что его окружает — не более, чем иллюзия, Матрица, а люди — всего лишь источник питания для искусственного интеллекта, поработившего человечество. И только Нео под силу изменить расстановку сил в этом ставшем вдруг чужим и страшным мире…- -Исходник: BDRemux 1080p
Тип релиза: BDRip 720p
Контейнер: MKV
Видео: 1280x530 (2,40:1), 23,976 fps, H264 ~ 3138 kbps avg, 0.193 bit/pixel
Аудио: 48 kHz, Dolby Digital AC3 5.1, 448 kbps DUB
Аудио: 48 kHz, Dolby Digital AC3 5.1, 448 kbps MVO
Аудио: 48 kHz, Dolby Digital AC3 5.1, 448 kbps DVO П.Гланц и И.Королёва
Аудио: 48 kHz, Dolby Digital AC3 5.1, 448 kbps Одноголосый закадровый CDV
Аудио: 48 kHz, Dolby Digital AC3 5.1, 448 kbps AVO А.Гаврилов
Аудио: 48 kHz, Dolby Digital AC3 5.1, 448 kbps AVO Пучков (Гоблин)
Аудио: 48 kHz, Dolby Digital AC3 5.1, 448 kbps AVO Пучков (Гоблин) пародия
Аудио: 48 kHz, Dolby Digital AC3 5.1, 448 kbps Английский
Оригинальная навигация по главам: есть
Субтитры: SoftSub (srt)

MediaInfo

Общее
Полное имя : Matrica.1999.BDRip720p_[New-team]_by_AVP_Studio.mkv
Формат : Matroska
Версия формата : Version 4 / Version 2
Размер файла : 6,57 Гбайт
Продолжительность : 2 ч. 17 м.
Общий поток : 6858 Кбит/сек
Название фильма : Matrica.1999.BDRip720p_[New-team]_by_AVP_Studio
Дата кодирования : UTC 2014-07-13 08:15:07
Программа кодирования : mkvmerge v6.9.1 ('Blue Panther') 64bit built on Apr 18 2014 18:23:38
Библиотека кодирования : libebml v1.3.0 + libmatroska v1.4.1
Видео
Идентификатор : 1
Формат : AVC
Формат/Информация : Advanced Video Codec
Профиль формата : High@L4.1
Параметр CABAC формата : Да
Параметр ReFrames формата : 6 кадров
Идентификатор кодека : V_MPEG4/ISO/AVC
Продолжительность : 2 ч. 17 м.
Битрейт : 3138 Кбит/сек
Номинальный битрейт : 3308 Кбит/сек
Ширина : 1280 пикселей
Высота : 530 пикселей
Соотношение сторон : 2,40:1
Режим частоты кадров : Постоянный
Частота кадров : 23,976 кадра/сек
Цветовое пространство : YUV
Субдискретизация насыщенности : 4:2:0
Битовая глубина : 8 бит
Тип развёртки : Прогрессивная
Бит/(Пиксели*Кадры) : 0.193
Размер потока : 3,00 Гбайт (46%)
Заголовок : Источник BDRemux
Библиотека кодирования : x264 core 138 r2356 a1d3d17
Настройки программы : cabac=1 / ref=6 / deblock=1:-3:-3 / analyse=0x3:0x113 / me=umh / subme=10 / psy=1 / psy_rd=1.00:0.05 / mixed_ref=1 / me_range=32 / chroma_me=1 / trellis=2 / 8x8dct=1 / cqm=0 / deadzone=21,11 / fast_pskip=0 / chroma_qp_offset=-3 / threads=6 / lookahead_threads=1 / sliced_threads=0 / nr=0 / decimate=0 / interlaced=0 / bluray_compat=0 / constrained_intra=0 / bframes=8 / b_pyramid=2 / b_adapt=2 / b_bias=0 / direct=3 / weightb=1 / open_gop=0 / weightp=2 / keyint=240 / keyint_min=24 / scenecut=40 / intra_refresh=0 / rc_lookahead=40 / rc=2pass / mbtree=1 / bitrate=3308 / ratetol=1.0 / qcomp=0.60 / qpmin=10 / qpmax=51 / qpstep=4 / cplxblur=20.0 / qblur=0.5 / vbv_maxrate=50000 / vbv_bufsize=50000 / nal_hrd=none / ip_ratio=1.40 / aq=1:0.80
Язык : English
Default : Да
Forced : Нет
Аудио #1
Идентификатор : 2
Формат : AC-3
Формат/Информация : Audio Coding 3
Расширение режима : CM (complete main)
Параметр Endianness формата : Big
Идентификатор кодека : A_AC3
Продолжительность : 2 ч. 17 м.
Вид битрейта : Постоянный
Битрейт : 448 Кбит/сек
Каналы : 6 каналов
Расположение каналов : Front: L C R, Side: L R, LFE
Частота : 48,0 КГц
Битовая глубина : 16 бит
Метод сжатия : С потерями
Размер потока : 439 Мбайт (7%)
Заголовок : Источник BDRemux Dolby Digital 5,1 448 kbps DUB
Язык : Russian
Default : Да
Forced : Нет
Аудио #2
Идентификатор : 3
Формат : AC-3
Формат/Информация : Audio Coding 3
Расширение режима : CM (complete main)
Параметр Endianness формата : Big
Идентификатор кодека : A_AC3
Продолжительность : 2 ч. 17 м.
Вид битрейта : Постоянный
Битрейт : 448 Кбит/сек
Каналы : 6 каналов
Расположение каналов : Front: L C R, Side: L R, LFE
Частота : 48,0 КГц
Битовая глубина : 16 бит
Метод сжатия : С потерями
Размер потока : 439 Мбайт (7%)
Заголовок : Источник BDRemux Dolby Digital 5,1 448 kbps MVO
Язык : Russian
Default : Нет
Forced : Нет
Аудио #3
Идентификатор : 4
Формат : AC-3
Формат/Информация : Audio Coding 3
Расширение режима : CM (complete main)
Параметр Endianness формата : Big
Идентификатор кодека : A_AC3
Продолжительность : 2 ч. 17 м.
Вид битрейта : Постоянный
Битрейт : 448 Кбит/сек
Каналы : 6 каналов
Расположение каналов : Front: L C R, Side: L R, LFE
Частота : 48,0 КГц
Битовая глубина : 16 бит
Метод сжатия : С потерями
Размер потока : 439 Мбайт (7%)
Заголовок : Источник BDRemux Dolby Digital 5,1 448 kbps П.Гланц и И.Королёва
Язык : Russian
Default : Нет
Forced : Нет
Аудио #4
Идентификатор : 5
Формат : AC-3
Формат/Информация : Audio Coding 3
Расширение режима : CM (complete main)
Параметр Endianness формата : Big
Идентификатор кодека : A_AC3
Продолжительность : 2 ч. 17 м.
Вид битрейта : Постоянный
Битрейт : 448 Кбит/сек
Каналы : 6 каналов
Расположение каналов : Front: L C R, Side: L R, LFE
Частота : 48,0 КГц
Битовая глубина : 16 бит
Метод сжатия : С потерями
Размер потока : 439 Мбайт (7%)
Заголовок : Источник BDRemux Dolby Digital 5,1 448 kbps одноголосый закадровый CDV
Язык : Russian
Default : Нет
Forced : Нет
Аудио #5
Идентификатор : 6
Формат : AC-3
Формат/Информация : Audio Coding 3
Расширение режима : CM (complete main)
Параметр Endianness формата : Big
Идентификатор кодека : A_AC3
Продолжительность : 2 ч. 17 м.
Вид битрейта : Постоянный
Битрейт : 448 Кбит/сек
Каналы : 6 каналов
Расположение каналов : Front: L C R, Side: L R, LFE
Частота : 48,0 КГц
Битовая глубина : 16 бит
Метод сжатия : С потерями
Размер потока : 439 Мбайт (7%)
Заголовок : Источник BDRemux Dolby Digital 5,1 448 kbps А.Гаврилов
Язык : Russian
Default : Нет
Forced : Нет
Аудио #6
Идентификатор : 7
Формат : AC-3
Формат/Информация : Audio Coding 3
Расширение режима : CM (complete main)
Параметр Endianness формата : Big
Идентификатор кодека : A_AC3
Продолжительность : 2 ч. 17 м.
Вид битрейта : Постоянный
Битрейт : 448 Кбит/сек
Каналы : 6 каналов
Расположение каналов : Front: L C R, Side: L R, LFE
Частота : 48,0 КГц
Битовая глубина : 16 бит
Метод сжатия : С потерями
Размер потока : 439 Мбайт (7%)
Заголовок : Источник BDRemux Dolby Digital 5,1 448 kbps Д. Пучков (Гоблин)
Язык : Russian
Default : Нет
Forced : Нет
Аудио #7
Идентификатор : 8
Формат : AC-3
Формат/Информация : Audio Coding 3
Расширение режима : CM (complete main)
Параметр Endianness формата : Big
Идентификатор кодека : A_AC3
Продолжительность : 2 ч. 17 м.
Вид битрейта : Постоянный
Битрейт : 448 Кбит/сек
Каналы : 6 каналов
Расположение каналов : Front: L C R, Side: L R, LFE
Частота : 48,0 КГц
Битовая глубина : 16 бит
Метод сжатия : С потерями
Размер потока : 439 Мбайт (7%)
Заголовок : Источник BDRemux Dolby Digital 5,1 448 kbps Пародия Гоблина
Язык : Russian
Default : Нет
Forced : Нет
Аудио #8
Идентификатор : 9
Формат : AC-3
Формат/Информация : Audio Coding 3
Расширение режима : CM (complete main)
Параметр Endianness формата : Big
Идентификатор кодека : A_AC3
Продолжительность : 2 ч. 17 м.
Вид битрейта : Постоянный
Битрейт : 448 Кбит/сек
Каналы : 6 каналов
Расположение каналов : Front: L C R, Side: L R, LFE
Частота : 48,0 КГц
Битовая глубина : 16 бит
Метод сжатия : С потерями
Размер потока : 439 Мбайт (7%)
Заголовок : Источник BDRemux Dolby Digital 5,1 448 kbps
Язык : English
Default : Нет
Forced : Нет
Текст #1
Идентификатор : 10
Формат : UTF-8
Идентификатор кодека : S_TEXT/UTF8
Идентификатор кодека/Информация : UTF-8 Plain Text
Заголовок : Источник BDRemux SoftSub (srt)
Язык : Russian
Default : Нет
Forced : Нет
Текст #2
Идентификатор : 11
Формат : UTF-8
Идентификатор кодека : S_TEXT/UTF8
Идентификатор кодека/Информация : UTF-8 Plain Text
Заголовок : SoftSub (srt) Гоблин
Язык : Russian
Default : Нет
Forced : Нет
Текст #3
Идентификатор : 12
Формат : UTF-8
Идентификатор кодека : S_TEXT/UTF8
Идентификатор кодека/Информация : UTF-8 Plain Text
Заголовок : Источник BDRemux SoftSub (srt)
Язык : English
Default : Нет
Forced : Нет
Меню
00:00:00.000 : en:Chapter 1
00:03:25.789 : en:Chapter 2
00:06:35.645 : en:Chapter 3
00:09:42.665 : en:Chapter 4
00:11:58.301 : en:Chapter 5
00:16:47.423 : en:Chapter 6
00:21:33.542 : en:Chapter 7
00:25:08.590 : en:Chapter 8
00:28:51.146 : en:Chapter 9
00:32:25.193 : en:Chapter 10
00:35:21.870 : en:Chapter 11
00:38:40.902 : en:Chapter 12
00:44:22.577 : en:Chapter 13
00:46:33.541 : en:Chapter 14
00:48:57.852 : en:Chapter 15
00:53:31.291 : en:Chapter 16
00:56:32.139 : en:Chapter 17
00:59:01.288 : en:Chapter 18
01:01:08.582 : en:Chapter 19
01:05:16.496 : en:Chapter 20
01:07:46.813 : en:Chapter 21
01:12:33.432 : en:Chapter 22
01:17:49.582 : en:Chapter 23
01:21:03.108 : en:Chapter 24
01:25:05.350 : en:Chapter 25
01:29:45.130 : en:Chapter 26
01:31:27.565 : en:Chapter 27
01:37:25.256 : en:Chapter 28
01:41:04.976 : en:Chapter 29
01:44:20.337 : en:Chapter 30
01:47:00.497 : en:Chapter 31
01:50:18.529 : en:Chapter 32
01:52:56.687 : en:Chapter 33
01:56:36.907 : en:Chapter 34
01:58:49.372 : en:Chapter 35
02:02:27.423 : en:Chapter 36
02:05:41.784 : en:Chapter 37
02:08:46.802 : en:Chapter 38
02:09:30.262 : en:Chapter 39
02:11:20.164 : en:Chapter 40

Скриншоты

[Профиль] [ЛС]
Показать сообщения:    

Текущее время: Сегодня 22:22

Часовой пояс: GMT



Вы не можете начинать темы
Вы не можете отвечать на сообщения
Вы не можете редактировать свои сообщения
Вы не можете удалять свои сообщения
Вы не можете голосовать в опросах
Вы не можете прикреплять файлы к сообщениям
Вы не можете скачивать файлы