Матрица: Трилогия / The Matrix: Trilogy (1999-2003) BDRip 1080p | 60 fps | D

 
Автор Сообщение

sergej644 ®

Пол:

Стаж: 4 года 11 месяцев

Сообщений: 6038

Откуда: Soviet Union



Награды: Нет

Торрент-статистика

Создавать темы 15-Ноя-2014 14:53

[Цитировать]

--Матрица: Трилогия / The Matrix: Trilogy (1999-2003) BDRip 1080p

Матрица

--Матрица
-Название: Матрица
Оригинальное название: The Matrix
Год выпуска: 1999
Страна: США, Австралия
Жанр: фантастика, боевик
Продолжительность: 02:16:17
Перевод: Дубляж - [Лицензия]
Субтитры: русские (Полные), английские (Полные)-Режиссер: Энди Вачовски / Andy Wachowski, Лана Вачовски / Lana Wachowski-В ролях: Киану Ривз (Neo), Лоренс Фишбёрн (Morpheus), Кэрри-Энн Мосс (Trinity), Хьюго Уивинг (Agent Smith), Джо Пантольяно (Cypher), Глория Фостер (Oracle), Маркус Чонг (Tank), Джулиан Араханга (Apoc), Мэтт Доран (Mouse), Белинда МакКлори (Switch), Энтони Рэй Паркер (Dozer), Пол Годдард (Agent Brown)-Описание:
Жизнь Томаса Андерсона разделена на две части: днём он самый обычный офисный работник, получающий нагоняи от начальства, а ночью превращается в хакера по имени Нео, и нет места в сети, куда он не смог бы дотянуться. Но однажды всё меняется - герой, сам того не желая, узнаёт страшную правду: всё, что его окружает - не более, чем иллюзия, Матрица, а люди - всего лишь источник питания для искусственного интеллекта, поработившего человечество. И только Нео под силу изменить расстановку сил в этом ставшем вдруг чужим и страшным мире.-Рейтинг

imdb.com: 8.70 (893 548)
MPAA: R - Лицам до 17 лет обязательно присутствие взрослого-Автор рипа:Tiberiumsun69-Качество: BDRip 1080p
Формат: MKV
Видео кодек: AVC
Аудио кодек:AC3
Видео: 1920x792, 12765 kbps, 59,940 fps
Аудио №1: русский/ 5.1/ 48 kHz/ 640 kbps/ AC3/ |Дубляж|
Аудио №2: английский/ 5.1/ 48 kHz/ 640 kbps/ AC3
Навигация по главам: есть
-

MI

General
Unique ID                                : 211077214918631361007149300621507600060 (0x9ECBFE2D50DC8F8F9C3FCD3398109EBC)
Название                            : A:1080p 60fpsМатрица 1080p 60fpsМатрица 1 1080p 60fps.mkv
Формат                                   : Matroska
Формат version                           : Version 4 / Version 2
Размер файла                                : 13.6 GiB
Длительность                                 : 2h 16mn
Общий Битрейт                         : 14.3 Mbps
Encoded date                             : UTC 2014-08-18 18:59:17
Создано приложением                      : mkvmerge v6.9.1 ('Blue Panther') 64bit built on Apr 18 2014 18:23:38
Writing library                          : libebml v1.3.0 + libmatroska v1.4.1
Video
ID                                       : 1
Формат                                   : AVC
Формат/Info                              : Advanced Video Кодек
Формат profile                           : High@L4.1
Формат настройки, CABAC                   : Yes
Формат настройки, ReFrames                : 4 frames
Кодек ID                                 : V_MPEG4/ISO/AVC
Длительность                                 : 2h 16mn
Битрейт                                 : 12.8 Mbps
Width                                    : 1 920 пикселей
Высота                                   : 792 пикселей
Соотношение кадра                     : 2.40:1
Частота кадров                               : 59.940 fps
Цветопередача                              : YUV
Chroma subsampling                       : 4:2:0
Разрядность                                : 8 bits
Тип сканирования                                : Progressive
Bits/(Pixel*Frame)                       : 0.140
Размер потока                              : 12.2 GiB (89%)
Writing library                          : x264 core 133 r2334 a3ac64b
Encoding настройки                        : cabac=1 / ref=4 / deblock=1:-1:-1 / analyse=0x3:0 / me=umh / subme=9 / psy=1 / psy_rd=1.00:0.10 / mixed_ref=1 / me_range=42 / chroma_me=0 / trellis=2 / 8x8dct=1 / cqm=0 / deadzone=21,11 / fast_pskip=0 / chroma_qp_offset=-3 / threads=12 / lookahead_threads=1 / sliced_threads=0 / nr=0 / decimate=0 / interlaced=0 / bluray_compat=0 / constrained_intra=0 / bframes=5 / b_pyramid=2 / b_adapt=2 / b_bias=0 / direct=1 / weightb=1 / open_gop=0 / weightp=2 / keyint=594 / keyint_min=59 / scenecut=40 / intra_refresh=0 / rc=crf / mbtree=0 / crf=15.0 / qcomp=0.60 / qpmin=0 / qpmax=69 / qpstep=4 / ip_ratio=1.40 / pb_ratio=1.30 / aq=0
Язык                                 : English
Default                                  : Yes
Forced                                   : No
Audio #1
ID                                       : 2
Формат                                   : AC-3
Формат/Info                              : Audio Coding 3
Расширение режима                           : CM (complete main)
Кодек ID                                 : A_AC3
Длительность                                 : 2h 16mn
Битрейт mode                            : Constant
Битрейт                                 : 640 Kbps
Каналы(s)                               : 6 каналов
Каналы positions                        : Front: L C R, Side: L R, LFE
Частота                            : 48.0 KHz
Разрядность                                : 16 bits
Режим сжатия                         : Lossy
Размер потока                              : 624 MiB (4%)
Title                                    : Дубляж
Язык                                 : Russian
Default                                  : Yes
Forced                                   : No
Audio #2
ID                                       : 3
Формат                                   : AC-3
Формат/Info                              : Audio Coding 3
Расширение режима                           : CM (complete main)
Кодек ID                                 : A_AC3
Длительность                                 : 2h 16mn
Битрейт mode                            : Constant
Битрейт                                 : 640 Kbps
Каналы(s)                               : 6 каналов
Каналы positions                        : Front: L C R, Side: L R, LFE
Частота                            : 48.0 KHz
Разрядность                                : 16 bits
Режим сжатия                         : Lossy
Размер потока                              : 624 MiB (4%)
Title                                    : Original
Язык                                 : English
Default                                  : No
Forced                                   : No
Text #1
ID                                       : 4
Формат                                   : UTF-8
Кодек ID                                 : S_TEXT/UTF8
Кодек ID/Info                            : UTF-8 Plain Text
Title                                    : Полные
Язык                                 : Russian
Default                                  : No
Forced                                   : No
Text #2
ID                                       : 5
Формат                                   : UTF-8
Кодек ID                                 : S_TEXT/UTF8
Кодек ID/Info                            : UTF-8 Plain Text
Title                                    : Полные
Язык                                 : English
Default                                  : No
Forced                                   : No
Menu
00:00:00.000                             : en:Chapter 1
00:03:25.788                             : en:Chapter 2
00:06:35.645                             : en:Chapter 3
00:09:42.665                             : en:Chapter 4
00:11:58.300                             : en:Chapter 5
00:16:47.423                             : en:Chapter 6
00:21:33.542                             : en:Chapter 7
00:25:08.590                             : en:Chapter 8
00:28:51.146                             : en:Chapter 9
00:32:25.193                             : en:Chapter 10
00:35:21.869                             : en:Chapter 11
00:38:40.901                             : en:Chapter 12
00:44:22.576                             : en:Chapter 13
00:46:33.540                             : en:Chapter 14
00:48:57.851                             : en:Chapter 15
00:53:31.291                             : en:Chapter 16
00:56:32.138                             : en:Chapter 17
00:59:01.287                             : en:Chapter 18
01:01:08.581                             : en:Chapter 19
01:05:16.495                             : en:Chapter 20
01:07:46.812                             : en:Chapter 21
01:12:33.432                             : en:Chapter 22
01:17:49.581                             : en:Chapter 23
01:21:03.108                             : en:Chapter 24
01:25:05.350                             : en:Chapter 25
01:29:45.129                             : en:Chapter 26
01:31:27.565                             : en:Chapter 27
01:37:25.256                             : en:Chapter 28
01:41:04.975                             : en:Chapter 29
01:44:20.337                             : en:Chapter 30
01:47:00.497                             : en:Chapter 31
01:50:18.528                             : en:Chapter 32
01:52:56.686                             : en:Chapter 33
01:56:36.906                             : en:Chapter 34
01:58:49.372                             : en:Chapter 35
02:02:27.423                             : en:Chapter 36
02:05:41.784                             : en:Chapter 37
02:08:46.802                             : en:Chapter 38

Скриншоты

Матрица 2: Перезагрузка

--Матрица 2: Перезагрузка
-Название: Матрица: Перезагрузка
Оригинальное название: The Matrix Reloaded
Год выпуска: 2003
Страна: США, Австралия
Жанр: фантастика, боевик
Продолжительность: 02:18:15
Перевод: Дубляж - [Лицензия]
Субтитры: русские (Полные), английские (Полные)-Режиссер: Энди Вачовски / Andy Wachowski, Лана Вачовски / Lana Wachowski-В ролях: Киану Ривз (Neo), Хьюго Уивинг (Agent Smith), Кэрри-Энн Мосс (Trinity), Лоренс Фишбёрн (Morpheus), Хэролд Перрино (Link), Джада Пинкетт Смит (Niobe), Моника Беллуччи (Persephone), Глория Фостер (The Oracle), Джина Торрес (Cas), Нэтаниэл Лис (Mifune), Гарри Дж. Ленникс (Commander Lock), Колин Чоу (Seraph)-Описание:
Борцы за свободу Нео, Тринити и Морфеус продолжают руководить восстанием людей против Армии Машин. Для уничтожения системы репрессий и эксплуатации они вынуждены прибегнуть не только к арсеналу превосходного оружия, но и к своим выдающимся навыкам.
Участие в миссии по спасению человеческой расы от ее полного истребления приносит им более глубокое понимание конструкции Матрицы и осознание центральной роли Нео в судьбе человечества.-Рейтинг

imdb.com: 7.20 (351 502)
MPAA: R - Лицам до 17 лет обязательно присутствие взрослого-Автор рипа:Tiberiumsun69-Качество: BDRip 1080p
Формат: MKV
Видео кодек: AVC
Аудио кодек:AC3
Видео: 1920x800, 11739 kbps, 59,940 fps
Аудио №1: русский/ 5.1/ 48 kHz/ 640 kbps/ AC3/ |Дубляж|
Аудио №2: английский/ 5.1/ 48 kHz/ 640 kbps/ AC3
Навигация по главам: есть
-

MI

General
Unique ID                                : 184317716796533732937949387798499111939 (0x8AAA4D0EB9E44044AC0762B307253403)
Название                            : A:1080p 60fpsМатрица 1080p 60fpsМатрица 2 1080p 60fps.mkv
Формат                                   : Matroska
Формат version                           : Version 4 / Version 2
Размер файла                                : 12.8 GiB
Длительность                                 : 2h 18mn
Общий Битрейт                         : 13.3 Mbps
Encoded date                             : UTC 2014-08-18 19:04:19
Создано приложением                      : mkvmerge v6.9.1 ('Blue Panther') 64bit built on Apr 18 2014 18:23:38
Writing library                          : libebml v1.3.0 + libmatroska v1.4.1
Video
ID                                       : 1
Формат                                   : AVC
Формат/Info                              : Advanced Video Кодек
Формат profile                           : High@L4.1
Формат настройки, CABAC                   : Yes
Формат настройки, ReFrames                : 4 frames
Кодек ID                                 : V_MPEG4/ISO/AVC
Длительность                                 : 2h 18mn
Битрейт                                 : 11.7 Mbps
Width                                    : 1 920 пикселей
Высота                                   : 800 пикселей
Соотношение кадра                     : 2.40:1
Частота кадров                               : 59.940 fps
Цветопередача                              : YUV
Chroma subsampling                       : 4:2:0
Разрядность                                : 8 bits
Тип сканирования                                : Progressive
Bits/(Pixel*Frame)                       : 0.128
Размер потока                              : 11.3 GiB (88%)
Writing library                          : x264 core 133 r2334 a3ac64b
Encoding настройки                        : cabac=1 / ref=4 / deblock=1:-1:-1 / analyse=0x3:0 / me=umh / subme=9 / psy=1 / psy_rd=1.00:0.10 / mixed_ref=1 / me_range=42 / chroma_me=0 / trellis=2 / 8x8dct=1 / cqm=0 / deadzone=21,11 / fast_pskip=0 / chroma_qp_offset=-3 / threads=12 / lookahead_threads=1 / sliced_threads=0 / nr=0 / decimate=0 / interlaced=0 / bluray_compat=0 / constrained_intra=0 / bframes=5 / b_pyramid=2 / b_adapt=2 / b_bias=0 / direct=1 / weightb=1 / open_gop=0 / weightp=2 / keyint=594 / keyint_min=59 / scenecut=40 / intra_refresh=0 / rc=crf / mbtree=0 / crf=15.0 / qcomp=0.60 / qpmin=0 / qpmax=69 / qpstep=4 / ip_ratio=1.40 / pb_ratio=1.30 / aq=0
Язык                                 : English
Default                                  : Yes
Forced                                   : No
Audio #1
ID                                       : 2
Формат                                   : AC-3
Формат/Info                              : Audio Coding 3
Расширение режима                           : CM (complete main)
Кодек ID                                 : A_AC3
Длительность                                 : 2h 18mn
Битрейт mode                            : Constant
Битрейт                                 : 640 Kbps
Каналы(s)                               : 6 каналов
Каналы positions                        : Front: L C R, Side: L R, LFE
Частота                            : 48.0 KHz
Разрядность                                : 16 bits
Режим сжатия                         : Lossy
Размер потока                              : 633 MiB (5%)
Title                                    : Дубляж
Язык                                 : Russian
Default                                  : Yes
Forced                                   : No
Audio #2
ID                                       : 3
Формат                                   : AC-3
Формат/Info                              : Audio Coding 3
Расширение режима                           : CM (complete main)
Кодек ID                                 : A_AC3
Длительность                                 : 2h 18mn
Битрейт mode                            : Constant
Битрейт                                 : 640 Kbps
Каналы(s)                               : 6 каналов
Каналы positions                        : Front: L C R, Side: L R, LFE
Частота                            : 48.0 KHz
Разрядность                                : 16 bits
Режим сжатия                         : Lossy
Размер потока                              : 633 MiB (5%)
Title                                    : Original
Язык                                 : English
Default                                  : No
Forced                                   : No
Text #1
ID                                       : 4
Формат                                   : UTF-8
Кодек ID                                 : S_TEXT/UTF8
Кодек ID/Info                            : UTF-8 Plain Text
Title                                    : Полные
Язык                                 : Russian
Default                                  : No
Forced                                   : No
Text #2
ID                                       : 5
Формат                                   : UTF-8
Кодек ID                                 : S_TEXT/UTF8
Кодек ID/Info                            : UTF-8 Plain Text
Title                                    : Полные
Язык                                 : English
Default                                  : No
Forced                                   : No
Menu
00:00:00.000                             : en:Chapter 1
00:03:50.230                             : en:Chapter 2
00:08:55.368                             : en:Chapter 3
00:12:16.902                             : en:Chapter 4
00:16:24.316                             : en:Chapter 5
00:19:43.182                             : en:Chapter 6
00:23:29.408                             : en:Chapter 7
00:27:26.811                             : en:Chapter 8
00:32:01.252                             : en:Chapter 9
00:33:43.187                             : en:Chapter 10
00:37:57.441                             : en:Chapter 11
00:40:55.619                             : en:Chapter 12
00:43:44.955                             : en:Chapter 13
00:50:42.706                             : en:Chapter 14
00:55:08.471                             : en:Chapter 15
01:00:03.099                             : en:Chapter 16
01:02:49.766                             : en:Chapter 17
01:08:52.294                             : en:Chapter 18
01:13:06.882                             : en:Chapter 19
01:16:21.410                             : en:Chapter 20
01:20:31.827                             : en:Chapter 21
01:22:47.128                             : en:Chapter 22
01:26:12.500                             : en:Chapter 23
01:29:52.887                             : en:Chapter 24
01:32:50.898                             : en:Chapter 25
01:37:10.825                             : en:Chapter 26
01:40:51.378                             : en:Chapter 27
01:44:57.791                             : en:Chapter 28
01:48:12.152                             : en:Chapter 29
01:52:25.572                             : en:Chapter 30
01:55:42.936                             : en:Chapter 31
01:57:37.550                             : en:Chapter 32
02:01:51.470                             : en:Chapter 33
02:04:18.451                             : en:Chapter 34
02:07:04.116                             : en:Chapter 35
02:16:29.681                             : en:Chapter 36
02:18:15.412                             : en:Chapter 37

Скриншоты

Матрица 3: Революция

--Матрица 3: Революция
-Название: Матрица: Революция
Оригинальное название: The Matrix Revolutions
Год выпуска: 2003
Страна: Австралия, США
Жанр: фантастика, боевик, приключения
Продолжительность: 02:09:15
Перевод: Дубляж - [Лицензия]
Субтитры: русские (Полные), английские (Полные)-Режиссер: Энди Вачовски / Andy Wachowski, Лана Вачовски / Lana Wachowski-В ролях: Киану Ривз (Neo), Хьюго Уивинг (Agent Smith), Кэрри-Энн Мосс (Trinity), Лоренс Фишбёрн (Morpheus), Хэролд Перрино (Link), Джина Торрес (Cas), Джада Пинкетт Смит (Niobe), Моника Беллуччи (Persephone), Гарри Дж. Ленникс (Lock), Мэри Элис (The Oracle), Брюс Спенс (Trainman), Нэтаниэл Лис (Mifune)-Описание:
Пока армия Машин пытается уничтожить Зион, его жители из последних сил держат оборону. Но удастся ли им предотвратить полное вторжение в город кишащей орды беспощадных машин до того, как Нео соберет все свои силы и положит конец войне?-Рейтинг

imdb.com: 6.70 (303 050)
MPAA: R - Лицам до 17 лет обязательно присутствие взрослого-Автор рипа:Tiberiumsun69-Качество: BDRip 1080p
Формат: MKV
Видео кодек: AVC
Аудио кодек:AC3
Видео: 1920x800, 12110 kbps, 59,940 fps
Аудио №1: русский/ 5.1/ 48 kHz/ 640 kbps/ AC3/ |Дубляж|
Аудио №2: английский/ 5.1/ 48 kHz/ 640 kbps/ AC3
Навигация по главам: есть
-

MI

General
Unique ID                                : 254146596390339405959460669661431080554 (0xBF32DAA165AC0ABFB145540DAE22266A)
Название                            : A:1080p 60fpsМатрица 1080p 60fpsМатрица 3 1080p 60fps.mkv
Формат                                   : Matroska
Формат version                           : Version 4 / Version 2
Размер файла                                : 12.3 GiB
Длительность                                 : 2h 9mn
Общий Битрейт                         : 13.7 Mbps
Encoded date                             : UTC 2014-08-18 19:09:00
Создано приложением                      : mkvmerge v6.9.1 ('Blue Panther') 64bit built on Apr 18 2014 18:23:38
Writing library                          : libebml v1.3.0 + libmatroska v1.4.1
Video
ID                                       : 1
Формат                                   : AVC
Формат/Info                              : Advanced Video Кодек
Формат profile                           : High@L4.1
Формат настройки, CABAC                   : Yes
Формат настройки, ReFrames                : 4 frames
Кодек ID                                 : V_MPEG4/ISO/AVC
Длительность                                 : 2h 9mn
Битрейт                                 : 12.1 Mbps
Width                                    : 1 920 пикселей
Высота                                   : 800 пикселей
Соотношение кадра                     : 2.40:1
Частота кадров                               : 59.940 fps
Цветопередача                              : YUV
Chroma subsampling                       : 4:2:0
Разрядность                                : 8 bits
Тип сканирования                                : Progressive
Bits/(Pixel*Frame)                       : 0.132
Размер потока                              : 10.9 GiB (89%)
Writing library                          : x264 core 133 r2334 a3ac64b
Encoding настройки                        : cabac=1 / ref=4 / deblock=1:-1:-1 / analyse=0x3:0 / me=umh / subme=9 / psy=1 / psy_rd=1.00:0.10 / mixed_ref=1 / me_range=42 / chroma_me=0 / trellis=2 / 8x8dct=1 / cqm=0 / deadzone=21,11 / fast_pskip=0 / chroma_qp_offset=-3 / threads=12 / lookahead_threads=1 / sliced_threads=0 / nr=0 / decimate=0 / interlaced=0 / bluray_compat=0 / constrained_intra=0 / bframes=5 / b_pyramid=2 / b_adapt=2 / b_bias=0 / direct=1 / weightb=1 / open_gop=0 / weightp=2 / keyint=594 / keyint_min=59 / scenecut=40 / intra_refresh=0 / rc=crf / mbtree=0 / crf=15.0 / qcomp=0.60 / qpmin=0 / qpmax=69 / qpstep=4 / ip_ratio=1.40 / pb_ratio=1.30 / aq=0
Язык                                 : English
Default                                  : Yes
Forced                                   : No
Audio #1
ID                                       : 2
Формат                                   : AC-3
Формат/Info                              : Audio Coding 3
Расширение режима                           : CM (complete main)
Кодек ID                                 : A_AC3
Длительность                                 : 2h 9mn
Битрейт mode                            : Constant
Битрейт                                 : 640 Kbps
Каналы(s)                               : 6 каналов
Каналы positions                        : Front: L C R, Side: L R, LFE
Частота                            : 48.0 KHz
Разрядность                                : 16 bits
Режим сжатия                         : Lossy
Размер потока                              : 592 MiB (5%)
Title                                    : Дубляж
Язык                                 : Russian
Default                                  : Yes
Forced                                   : No
Audio #2
ID                                       : 3
Формат                                   : AC-3
Формат/Info                              : Audio Coding 3
Расширение режима                           : CM (complete main)
Кодек ID                                 : A_AC3
Длительность                                 : 2h 9mn
Битрейт mode                            : Constant
Битрейт                                 : 640 Kbps
Каналы(s)                               : 6 каналов
Каналы positions                        : Front: L C R, Side: L R, LFE
Частота                            : 48.0 KHz
Разрядность                                : 16 bits
Режим сжатия                         : Lossy
Размер потока                              : 592 MiB (5%)
Title                                    : Original
Язык                                 : English
Default                                  : No
Forced                                   : No
Text #1
ID                                       : 4
Формат                                   : UTF-8
Кодек ID                                 : S_TEXT/UTF8
Кодек ID/Info                            : UTF-8 Plain Text
Title                                    : Полные
Язык                                 : Russian
Default                                  : No
Forced                                   : No
Text #2
ID                                       : 5
Формат                                   : UTF-8
Кодек ID                                 : S_TEXT/UTF8
Кодек ID/Info                            : UTF-8 Plain Text
Title                                    : Полные
Язык                                 : English
Default                                  : No
Forced                                   : No
Menu
00:00:00.000                             : en:Chapter 1
00:03:55.401                             : en:Chapter 2
00:07:33.119                             : en:Chapter 3
00:10:19.952                             : en:Chapter 4
00:14:44.383                             : en:Chapter 5
00:17:58.744                             : en:Chapter 6
00:23:33.245                             : en:Chapter 7
00:30:06.304                             : en:Chapter 8
00:35:35.633                             : en:Chapter 9
00:39:34.205                             : en:Chapter 10
00:42:58.909                             : en:Chapter 11
00:46:43.300                             : en:Chapter 12
00:49:02.606                             : en:Chapter 13
00:51:53.610                             : en:Chapter 14
00:58:00.643                             : en:Chapter 15
01:00:19.115                             : en:Chapter 16
01:02:29.746                             : en:Chapter 17
01:08:00.910                             : en:Chapter 18
01:10:29.225                             : en:Chapter 19
01:14:33.802                             : en:Chapter 20
01:18:23.365                             : en:Chapter 21
01:23:08.984                             : en:Chapter 22
01:25:55.817                             : en:Chapter 23
01:29:13.348                             : en:Chapter 24
01:31:51.672                             : en:Chapter 25
01:36:51.472                             : en:Chapter 26
01:41:55.275                             : en:Chapter 27
01:44:53.120                             : en:Chapter 28
01:48:06.646                             : en:Chapter 29
01:51:30.850                             : en:Chapter 30
01:55:05.899                             : en:Chapter 31
01:57:31.210                             : en:Chapter 32
02:00:12.371                             : en:Chapter 33
02:09:15.664                             : en:Chapter 34

Скриншоты

-

Внимание!

Перед скачиванием обязательно проверьте Сэмплы на своем оборудовании.

Благодарности

Raven за помощ при создании релиза и обложек
--
[Профиль] [ЛС]
Показать сообщения:    

Текущее время: Сегодня 12:32

Часовой пояс: GMT



Вы не можете начинать темы
Вы не можете отвечать на сообщения
Вы не можете редактировать свои сообщения
Вы не можете удалять свои сообщения
Вы не можете голосовать в опросах
Вы не можете прикреплять файлы к сообщениям
Вы не можете скачивать файлы