Матери и дочери / Тайный дневник / Meres et filles / Hidden Diary (Джюли Лопес-Кюрваль / Julie Lopes-Curval) [2009, Франция, Канада, Драма, DVDRip] Sub (Rus) + Original Fre

 
Автор Сообщение

painkiller ®

Стаж: 2 года 3 месяца

Сообщений: 582



Награды: Нет

Торрент-статистика

Создавать темы 15-Авг-2014 10:18

[Цитировать]

Матери и дочери / Тайный дневник / Meres et filles / Hidden Diary
Страна: Франция, Канада
Жанр: Драма
Год выпуска: 2009
Продолжительность: 01:44:29
Перевод: Субтитры от "Застенчивый скунсик"
Cубтитры: русские, французские, английские
Оригинальная аудиодорожка: французский
Режиссер: Джюли Лопес-Кюрваль / Julie Lopes-Curval
В ролях: Катрин Денев, Марина Хэндс, Мари-Жозе Кроз, Мишель Дюшоссуа, Жан-Филипп Экоффей, Элеонора Хирт
Описание: Девушка по имени Одри приезжает из Канады в небольшой французский городок, где она жила в детстве, навестить своих родителей. В доме, в котором когда то жили родители её матери, она случайно находит дневник, некогда пренадлежавший её бабушке, бесследно пропавшей в середине 50-х, который помогает пролить свет на историю того, что же на самом деле случилось здесь более полувека назад.
Доп. информация:
Сэмпл:
Качество видео: DVDRip
Формат видео: AVI
Видео: 704x384 (1.83:1), 23.976 fps, XviD 1.1.0 ~1668 kbps avg, 0.26 bit/pixel
Аудио: 48 kHz, AC3 Audio Coding 3, 2 (L R), ~192 kbps
Формат субтитров: softsub (SRT)

MediaInfo

General
Complete name : I:\Hidden.Diary.(Meres.et.Fillles).2009.DVDRip.AC3.HORiZON-ArtSubs\Hidden.Diary.(Meres.et.Fillles).2009.DVDRip.AC3.HORiZON-ArtSubs.avi
Format : AVI
Format/Info : Audio Video Interleave
File size : 1.36 GiB
Duration : 1h 44mn
Overall bit rate : 1 869 Kbps
Writing application : FairUse Wizard
Writing library : The best and REALLY easy backup tool
Video #0
ID : 0
Format : MPEG-4 Visual
Format profile : AdvancedSimple@L5
Format settings, BVOP : Yes
Format settings, QPel : No
Format settings, GMC : No warppoints
Format settings, Matrix : Default (H.263)
Muxing mode : Packed bitstream
Codec ID : XVID
Codec ID/Hint : XviD
Duration : 1h 44mn
Bit rate : 1 668 Kbps
Width : 704 pixels
Height : 384 pixels
Display aspect ratio : 16:9
Frame rate : 23.976 fps
Resolution : 24 bits
Colorimetry : 4:2:0
Scan type : Progressive
Bits/(Pixel*Frame) : 0.257
Stream size : 1.22 GiB (89%)
Writing library : XviD 1.1.0 (UTC 2005-11-22)
Audio #1
ID : 1
Format : AC-3
Format/Info : Audio Coding 3
Codec ID : 2000
Duration : 1h 44mn
Bit rate mode : Constant
Bit rate : 192 Kbps
Channel(s) : 2 channels
Channel positions : L R
Sampling rate : 48.0 KHz
Stream size : 144 MiB (10%)
Alignment : Split accross interleaves
Interleave, duration : 42 ms (1.00 video frame)
Interleave, preload duration : 500 ms

Скриншот c названием фильма

Скриншоты

[Профиль] [ЛС]

Создавать темы 06-Авг-2015 23:10 (спустя 11 месяцев 22 дня)

Топик был перенесен из форума Фильмы до 2014 года в форум Фильмы до 2012 года
sergej644
 

Создавать темы 12-Июн-2016 08:48 (спустя 1 год 9 месяцев)

Топик был перенесен из форума Фильмы 2011 года в форум Фильмы 2009 года
Russian Mafia
 
Кто просматривает тему:

Форум Тема Автор Размер
Сhanson (Шансон) Ирина Круг - Матёрая любовь (2015) MP3, 320 kbs Russian Mafia 103 MB
Компьютерная литература (Программирование) DevCon 2011 - инструменты, обучающие материалы и полезные ссылки [2011, HTML, RUS] TorrentFilm 7.27 GB
Компьютерная литература (Программирование) DevCon 2011 - Технические материалы [2011, HTML, RUS] TorrentFilm 7.45 GB
Документальные HD Discovery. NASA: Необъяснимые материалы / NASA's Unexplained Files (2014) HDTVRip [H.264/720p] [1-5 серия] sergej644 8.6 GB
PBS PBS: Тайны материи. Поиски элементов / The Mystery of Matter: Search for the Elements [сезон 1 серии 1-3из 3] (Stephen Lyons) [2014 г., Документальный, игровой, биографический, история, HDTVRip 720p] skorpionN 4.96 GB
Разная литература Виктор Страшнов, Ольга Страшнова | Строим современный загородный дом. Современные материалы (2015) [FB2] достали все 10 MB
Зарубежные сериалы Горец / Highlander / Сезон: 1 / Серии: 1-22 (22) + доп. материалы (Дэннис Берри) [1992-1993, боевик, драма, фантастика, BDRip 720p] DVO (Селена Интернешнл по заказу ОРТ) + Original Russian Mafia 40.83 GB
Зарубежные сериалы Горец / Highlander / Сезон: 2 / Серии: 1-22 (22) + доп. материалы (Дэннис Берри) [1992-1998, Боевик, Фантастика, BDRip 720p] DVO (ОРТ) + Original Russian Mafia 53.98 GB
Показать сообщения:    

Текущее время: Сегодня 22:09

Часовой пояс: GMT



Вы не можете начинать темы
Вы не можете отвечать на сообщения
Вы не можете редактировать свои сообщения
Вы не можете удалять свои сообщения
Вы не можете голосовать в опросах
Вы не можете прикреплять файлы к сообщениям
Вы не можете скачивать файлы