Материк / Terraferma (2011) BDRip 720p | Лицензия

 
Автор Сообщение

Russian Mafia ®

Пол:

Стаж: 1 год 8 месяцев

Сообщений: 4257



Награды: 10 (Подробнее)

Top Releaser 4 (Количество: 1) Top Releaser 5 (Количество: 1) Top Releaser 3 (Количество: 1)
Торрент-статистика

Создавать темы 26-Сен-2015 05:39

[Цитировать]

Информация о файле
Название: Материк
Оригинальное название: Terraferma
Год выхода: 2011
Жанр: драма
Режиссер: Эмануэле Криалезе
В ролях: Филиппо Пучилло, Донателла Финокьяро, Беппе Фиорелло, Миммо Кутиккьо, Тициана Лодато, Клаудио Сантамария, Титти
О фильме: Жители живописного сицилийского острова Лампедуза испокон веков зарабатывали себе на жизнь рыболовным промыслом. Но времена изменились. Выросшие дети понимают, что море не будет кормить их вечно. В центре конфликта оказывается юный сын погибшего рыбака: родной дядя пытается вовлечь племянника в туристический бизнес, в то время как дед требует хранить верность рыбацким традициям. Отношения внутри семьи накаляются до предела, когда на остров прибывает целая партия нелегальных беженцев из Африки. По закону рыбаки обязаны сообщить о происшествии властям, после чего эмигранты будут экстрадированы обратно в Африку. Привыкшие оказывать помощь всем попавшим в беду, сицилийские рыбаки не могут допустить, чтобы по их вине пострадали женщины и дети. Члены семьи оказываются перед непростым выбором.


Выпущено: Франция, Италия / Babe Film
Продолжительность: 01:33:21
Перевод: Профессиональный (многоголосый) | Лицензия!
Файл
Формат: MKV
Качество: BDRip 720p
Видео: MPEG-4 AVC, 5681 Кбит/с, 1280x544
Аудио: Русский (AC3, 6 ch, 384 Кбит/с), итальянский (AC3, 6 ch, 640 Кбит/с)
Cубтитры: Русские, английские, итальянские-

Media Info

ФИЛЬМЫМАТЕРИК(MVO+SUB) 2011 720p BluRay AC3 x264-lord_i_74 (1).mkv
Формат : Matroska
Версия формата : Version 2
Размер файла : 4,46 Гбайт
Продолжительность : 1 ч. 33 м.
Общий поток : 6841 Кбит/сек
Дата кодирования : UTC 2012-04-20 12:13:51
Программа кодирования : mkvmerge v5.0.1 ('Es ist Sommer') built on Oct 9 2011 11:55:43
Библиотека кодирования : libebml v1.2.2 + libmatroska v1.3.0
Видео
Идентификатор : 1
Формат : AVC
Формат/Информация : Advanced Video Codec
Профиль формата : High@L4.1
Параметр CABAC формата : Да
Параметр ReFrames формата : 12 кадров
Идентификатор кодека : V_MPEG4/ISO/AVC
Продолжительность : 1 ч. 33 м.
Битрейт : 5681 Кбит/сек
Ширина : 1280 пикс.
Высота : 544 пикс.
Соотношение сторон : 2,35:1
Частота кадров : 23,976 кадр/сек
Цветовое пространство : YUV
Подвыборка цветности : 4:2:0
Битовая глубина : 8 бит
Тип развёртки : Прогрессивная
Бит/(Пиксели*Кадры) : 0.340
Размер потока : 3,70 Гбайт (83%)
Заголовок : Terraferma
Библиотека кодирования : x264 core 119 r2106 07efeb4
Настройки программы : cabac=1 / ref=12 / deblock=1:-3:-3 / analyse=0x3:0x133 / me=umh / subme=9 / psy=1 / psy_rd=1.25:0.10 / mixed_ref=1 / me_range=16 / chroma_me=1 / trellis=2 / 8x8dct=1 / cqm=0 / deadzone=21,11 / fast_pskip=0 / chroma_qp_offset=-3 / threads=12 / sliced_threads=0 / nr=0 / decimate=0 / interlaced=0 / bluray_compat=0 / constrained_intra=0 / bframes=8 / b_pyramid=2 / b_adapt=2 / b_bias=0 / direct=3 / weightb=1 / open_gop=0 / weightp=2 / keyint=250 / keyint_min=23 / scenecut=40 / intra_refresh=0 / rc=crf / mbtree=0 / crf=17.4 / qcomp=0.60 / qpmin=10 / qpmax=51 / qpstep=4 / ip_ratio=1.40 / pb_ratio=1.30 / aq=1:0.65
Язык : Italian
Аудио #1
Идентификатор : 2
Формат : AC-3
Формат/Информация : Audio Coding 3
Расширение режима : CM (complete main)
Идентификатор кодека : A_AC3
Продолжительность : 1 ч. 33 м.
Вид битрейта : Постоянный
Битрейт : 384 Кбит/сек
Каналы : 6 каналов
Расположение каналов : Front: L C R, Side: L R, LFE
Частота : 48,0 КГц
Битовая глубина : 16 бит
Метод сжатия : С потерями
Размер потока : 256 Мбайт (6%)
Заголовок : MVO R5
Язык : Russian
Аудио #2
Идентификатор : 3
Формат : AC-3
Формат/Информация : Audio Coding 3
Расширение режима : CM (complete main)
Идентификатор кодека : A_AC3
Продолжительность : 1 ч. 33 м.
Вид битрейта : Постоянный
Битрейт : 640 Кбит/сек
Каналы : 6 каналов
Расположение каналов : Front: L C R, Side: L R, LFE
Частота : 48,0 КГц
Битовая глубина : 16 бит
Метод сжатия : С потерями
Размер потока : 427 Мбайт (9%)
Заголовок : Terraferma
Язык : Italian
Текст #1
Идентификатор : 4
Формат : UTF-8
Идентификатор кодека : S_TEXT/UTF8
Идентификатор кодека/Информация : UTF-8 Plain Text
Заголовок : sub sonnyb
Язык : Russian
Текст #2
Идентификатор : 5
Формат : UTF-8
Идентификатор кодека : S_TEXT/UTF8
Идентификатор кодека/Информация : UTF-8 Plain Text
Заголовок : Terraferma
Язык : English
Текст #3
Идентификатор : 6
Формат : UTF-8
Идентификатор кодека : S_TEXT/UTF8
Идентификатор кодека/Информация : UTF-8 Plain Text
Заголовок : Terraferma
Язык : Italian
-

Скриншоты

-
[Профиль] [ЛС]
Кто просматривает тему:

Форум Тема Автор Размер
Сhanson (Шансон) Ирина Круг - Матёрая любовь (2015) MP3, 320 kbs Russian Mafia 103 MB
Компьютерная литература (Программирование) DevCon 2011 - инструменты, обучающие материалы и полезные ссылки [2011, HTML, RUS] TorrentFilm 7.27 GB
Компьютерная литература (Программирование) DevCon 2011 - Технические материалы [2011, HTML, RUS] TorrentFilm 7.45 GB
Документальные HD Discovery. NASA: Необъяснимые материалы / NASA's Unexplained Files (2014) HDTVRip [H.264/720p] [1-5 серия] sergej644 8.6 GB
PBS PBS: Тайны материи. Поиски элементов / The Mystery of Matter: Search for the Elements [сезон 1 серии 1-3из 3] (Stephen Lyons) [2014 г., Документальный, игровой, биографический, история, HDTVRip 720p] skorpionN 4.96 GB
Разная литература Виктор Страшнов, Ольга Страшнова | Строим современный загородный дом. Современные материалы (2015) [FB2] достали все 10 MB
Фильмы 2016 года Глаза моей матери / The Eyes of My Mother (2016) WEB-DLRip | L1 ODESSA 1.35 GB
Зарубежные сериалы Горец / Highlander / Сезон: 1 / Серии: 1-22 (22) + доп. материалы (Дэннис Берри) [1992-1993, боевик, драма, фантастика, BDRip 720p] DVO (Селена Интернешнл по заказу ОРТ) + Original Russian Mafia 40.83 GB
Показать сообщения:    

Текущее время: Сегодня 03:24

Часовой пояс: GMT



Вы не можете начинать темы
Вы не можете отвечать на сообщения
Вы не можете редактировать свои сообщения
Вы не можете удалять свои сообщения
Вы не можете голосовать в опросах
Вы не можете прикреплять файлы к сообщениям
Вы не можете скачивать файлы