Мастер со сломанными пальцами / Diao shou guai zhao (1972) BDRip 1080p от Freak Chaos | P

 
Автор Сообщение

Russian Mafia ®

Пол:

Стаж: 1 год 8 месяцев

Сообщений: 4247



Награды: 10 (Подробнее)

Mega Seeder 1 (Количество: 1) Mega Seeder 5 (Количество: 1) Top Releaser 3 (Количество: 1)
Торрент-статистика

Создавать темы 07-Авг-2016 09:41

[Цитировать]

Информация о фильме
Название: Мастер со сломанными пальцами
Оригинальное название: Diao shou guai zhao
Год выхода: 1972
Жанр: Боевик, боевые искусства, комедия
Режиссер: Му Жу
В ролях: Джеки Чан, Сиу Тиен Юэнь, Дин Шек, Квок Чои Хон, Юэнь Бяо, Фенг Тиен, Ёнг-Мун Квон, Кэм Чунг, Шао Лун Чианг, Чун Чин
О фильме:
В фильме Джеки Чан учится владеть самым смертельнум оружием на свете — своими руками и ногами, для того, что бы отомстить за смерть своего отца.
Он решает предпринять опасный поход в логово самой опасной в районе банды, которая в битвах не знает никаких правил, у банды есть предводитель, который не знает жалости ни к кому, а жаждет только крови.
Страна: Гонконг
Продолжительность: 01:25:13
Перевод: Профессиональный многоголосый закадровый
Файл
Кодек: AVC, x264
Качество: BDRip 1080p
Видео: 1920x816 (2,35:1), 8000 kbps, 23,976 fps
Звук: AC-3, 192 kbps, 48 KHz, 2 channels

MediaInfo

General
Unique ID : 216950001196460630658778240394528875653 (0xA3370CE54DFC643493B9805F4288E485)
Complete name : X:FILMSГонконгМастер со сломанными пальцами [Diao shou guai zhao, 1972] 1080p.mkv
Format : Matroska
Format version : Version 2
File size : 4.88 GiB
Duration : 1h 25mn
Overall bit rate : 8 192 Kbps
Encoded date : UTC 2016-08-05 15:44:38
Writing application : mkvmerge v5.2.1 ('A Far Off Place') built on Jan 2 2012 23:21:10
Writing library : libebml v1.2.3 + libmatroska v1.3.0
Video
ID : 1
Format : AVC
Format/Info : Advanced Video Codec
Format profile : High@L4.1
Format settings, CABAC : Yes
Format settings, ReFrames : 4 frames
Muxing mode : Header stripping
Codec ID : V_MPEG4/ISO/AVC
Duration : 1h 25mn
Bit rate : 8 000 Kbps
Width : 1 920 pixels
Height : 816 pixels
Display aspect ratio : 2.35:1
Frame rate mode : Constant
Frame rate : 23.976 (24000/1001) fps
Color space : YUV
Chroma subsampling : 4:2:0
Bit depth : 8 bits
Scan type : Progressive
Bits/(Pixel*Frame) : 0.213
Stream size : 4.66 GiB (96%)
Title : Master with cracked fingers
Writing library : x264 core 120 r2164 da19765
Encoding settings : cabac=1 / ref=3 / deblock=1:0:0 / analyse=0x3:0x113 / me=hex / subme=7 / psy=1 / psy_rd=1.00:0.00 / mixed_ref=1 / me_range=16 / chroma_me=1 / trellis=1 / 8x8dct=1 / cqm=0 / deadzone=21,11 / fast_pskip=1 / chroma_qp_offset=-2 / threads=3 / sliced_threads=0 / nr=0 / decimate=1 / interlaced=0 / bluray_compat=0 / constrained_intra=0 / bframes=3 / b_pyramid=2 / b_adapt=1 / b_bias=0 / direct=1 / weightb=1 / open_gop=0 / weightp=2 / keyint=240 / keyint_min=23 / scenecut=40 / intra_refresh=0 / rc_lookahead=40 / rc=2pass / mbtree=1 / bitrate=8000 / ratetol=1.0 / qcomp=0.60 / qpmin=0 / qpmax=69 / qpstep=4 / cplxblur=20.0 / qblur=0.5 / ip_ratio=1.40 / aq=1:1.00
Language : English
Default : Yes
Forced : No
Audio
ID : 2
Format : AC-3
Format/Info : Audio Coding 3
Mode extension : CM (complete main)
Format settings, Endianness : Big
Muxing mode : Header stripping
Codec ID : A_AC3
Duration : 1h 25mn
Bit rate mode : Constant
Bit rate : 192 Kbps
Channel(s) : 2 channels
Channel positions : Front: L R
Sampling rate : 48.0 KHz
Frame rate : 31.250 fps (1536 spf)
Compression mode : Lossy
Stream size : 117 MiB (2%)
Title : Многоголосый
Language : Russian
Default : Yes
Forced : No

Скриншоты

[Профиль] [ЛС]
Показать сообщения:    

Текущее время: Сегодня 02:15

Часовой пояс: GMT



Вы не можете начинать темы
Вы не можете отвечать на сообщения
Вы не можете редактировать свои сообщения
Вы не можете удалять свои сообщения
Вы не можете голосовать в опросах
Вы не можете прикреплять файлы к сообщениям
Вы не можете скачивать файлы