(Heavy Metal) Мастер - Легенды русского рока - 2002, FLAC (image+.cue), lossless

 
Автор Сообщение

sergej644 ®

Пол:

Стаж: 4 года 11 месяцев

Сообщений: 6046

Откуда: Soviet Union



Награды: Нет

Торрент-статистика

Создавать темы 27-Авг-2014 12:13

[Цитировать]

--Мастер / Легенды русского рока
Жанр: Heavy Metal
Страна-производитель диска: Россия
Год издания: 2002
Издатель (лейбл): Moroz Records
Номер по каталогу: dMR 56102 CD
Аудиокодек: FLAC (*.flac)
Тип рипа: image+.cue
Битрейт аудио: lossless
Продолжительность: 01:16:02
Наличие сканов в содержимом раздачи: да
Треклист:
1. Берегись
2. Руки прочь!
3. Кто кого?
4. Щит и меч
5. Мастер
6. Палачи
7. Наплевать
8. Мы не рабы
9. Heroes
10. They Are Just Like Us
11. Пепел на ветру
12. Надоело
13. Бас соло
14. Здесь куют металл
15. Таран
16. Кресты
17. Места хватит всем

Лог создания рипа

Exact Audio Copy V1.0 beta 3 from 29. August 2011
EAC extraction logfile from 27. August 2014, 9:46
Мастер / Легенды русского рока
Used drive  : SlimtypeDVD A DS8A4S   Adapter: 1  ID: 0
Read mode               : Secure
Utilize accurate stream : Yes
Defeat audio cache      : Yes
Make use of C2 pointers : No
Read offset correction                      : 6
Overread into Lead-In and Lead-Out          : No
Fill up missing offset samples with silence : Yes
Delete leading and trailing silent blocks   : No
Null samples used in CRC calculations       : Yes
Used interface                              : Native Win32 interface for Win NT & 2000
Used output format              : User Defined Encoder
Selected bitrate                : 1024 kBit/s
Quality                         : High
Add ID3 tag                     : No
Command line compressor         : D:\Program Files\Exact Audio Copy\Flac\flac.exeAdditional command line options : -V -8 -T "Date=%year%" -T "Genre=%genre%" %source%
TOC of the extracted CD
Track |   Start  |  Length  | Start sector | End sector    ---------------------------------------------------------        1  |  0:00.00 |  3:59.43 |         0    |    17967        2  |  3:59.43 |  5:13.20 |     17968    |    41462        3  |  9:12.63 |  2:48.39 |     41463    |    54101        4  | 12:01.27 |  4:52.67 |     54102    |    76068        5  | 16:54.19 |  4:03.34 |     76069    |    94327        6  | 20:57.53 |  4:19.42 |     94328    |   113794        7  | 25:17.20 |  3:30.35 |    113795    |   129579        8  | 28:47.55 |  3:04.49 |    129580    |   143428        9  | 31:52.29 |  4:04.48 |    143429    |   161776       10  | 35:57.02 |  5:40.61 |    161777    |   187337       11  | 41:37.63 |  4:39.62 |    187338    |   208324       12  | 46:17.50 |  2:57.07 |    208325    |   221606       13  | 49:14.57 |  7:25.29 |    221607    |   255010       14  | 56:40.11 |  5:02.24 |    255011    |   277684       15  | 61:42.35 |  2:38.70 |    277685    |   289604       16  | 64:21.30 |  5:34.19 |    289605    |   314673       17  | 69:55.49 |  6:44.45 |    314674    |   345018
Range status and errors
Selected range
Filename G:\Мастер\Мастер - Легенды русского рока (2002)\Мастер - Легенды русского рока.wav
Peak level 100.0 %
Extraction speed 2.1 X
Range quality 100.0 %
Test CRC DA532A17
Copy CRC DA532A17
Copy OK
No errors occurred
AccurateRip summary
Track  1  accurately ripped (confidence 2)  [97826F51]  (AR v1)
Track  2  accurately ripped (confidence 2)  [F19F7638]  (AR v1)
Track  3  accurately ripped (confidence 2)  [2DA31C0F]  (AR v1)
Track  4  accurately ripped (confidence 2)  [A3D33382]  (AR v1)
Track  5  accurately ripped (confidence 2)  [CBAD6A52]  (AR v1)
Track  6  accurately ripped (confidence 2)  [DD7A237B]  (AR v1)
Track  7  accurately ripped (confidence 2)  [6CC8B200]  (AR v1)
Track  8  accurately ripped (confidence 2)  [E8F94924]  (AR v1)
Track  9  accurately ripped (confidence 2)  [373BB7C9]  (AR v1)
Track 10  accurately ripped (confidence 2)  [50FF16A2]  (AR v1)
Track 11  accurately ripped (confidence 2)  [0F522347]  (AR v1)
Track 12  accurately ripped (confidence 2)  [9FC00135]  (AR v1)
Track 13  accurately ripped (confidence 2)  [4DF1848D]  (AR v1)
Track 14  accurately ripped (confidence 2)  [142801BD]  (AR v1)
Track 15  accurately ripped (confidence 2)  [4FADC852]  (AR v1)
Track 16  accurately ripped (confidence 2)  [E418EB8D]  (AR v1)
Track 17  accurately ripped (confidence 2)  [9CF69A12]  (AR v1)
All tracks accurately ripped
End of status report
==== Log checksum 956E56BB537FA137E533E08F384831F3C3EE30D78B27A0E91694AF96A3A48404 ====

Содержание индексной карты (.CUE)

REM GENRE "Heavy Metal"
REM DATE 2002
REM DISCID 0711F811
REM COMMENT "ExactAudioCopy v1.0b3"
PERFORMER "Мастер"
TITLE "Легенды русского рока"
FILE "Мастер - Легенды русского рока.flac" WAVE
TRACK 01 AUDIO
TITLE "Берегись"
PERFORMER "Мастер"
INDEX 01 00:00:00
TRACK 02 AUDIO
TITLE "Руки прочь!"
PERFORMER "Мастер"
INDEX 01 03:59:43
TRACK 03 AUDIO
TITLE "Кто кого?"
PERFORMER "Мастер"
INDEX 01 09:12:63
TRACK 04 AUDIO
TITLE "Щит и меч"
PERFORMER "Мастер"
INDEX 01 12:01:27
TRACK 05 AUDIO
TITLE "Мастер"
PERFORMER "Мастер"
INDEX 01 16:54:19
TRACK 06 AUDIO
TITLE "Палачи"
PERFORMER "Мастер"
INDEX 01 20:57:53
TRACK 07 AUDIO
TITLE "Наплевать"
PERFORMER "Мастер"
INDEX 01 25:17:20
TRACK 08 AUDIO
TITLE "Мы не рабы"
PERFORMER "Мастер"
INDEX 01 28:47:55
TRACK 09 AUDIO
TITLE "Heroes"
PERFORMER "Мастер"
INDEX 01 31:52:29
TRACK 10 AUDIO
TITLE "They Are Just Like Us"
PERFORMER "Мастер"
INDEX 01 35:57:02
TRACK 11 AUDIO
TITLE "Пепел на ветру"
PERFORMER "Мастер"
INDEX 01 41:37:63
TRACK 12 AUDIO
TITLE "Надоело"
PERFORMER "Мастер"
INDEX 01 46:17:50
TRACK 13 AUDIO
TITLE "Бас соло"
PERFORMER "Мастер"
INDEX 01 49:14:57
TRACK 14 AUDIO
TITLE "Здесь куют металл"
PERFORMER "Мастер"
INDEX 01 56:40:11
TRACK 15 AUDIO
TITLE "Таран"
PERFORMER "Мастер"
INDEX 01 61:42:35
TRACK 16 AUDIO
TITLE "Кресты"
PERFORMER "Мастер"
INDEX 01 64:21:30
TRACK 17 AUDIO
TITLE "Места хватит всем"
PERFORMER "Мастер"
INDEX 01 69:55:49
--
[Профиль] [ЛС]

Создавать темы 13-Авг-2015 10:29 (спустя 11 месяцев 16 дней)

Топик был перенесен из форума Отечественная в форум Metal
sergej644
 
Показать сообщения:    

Текущее время: Сегодня 10:15

Часовой пояс: GMT



Вы не можете начинать темы
Вы не можете отвечать на сообщения
Вы не можете редактировать свои сообщения
Вы не можете удалять свои сообщения
Вы не можете голосовать в опросах
Вы не можете прикреплять файлы к сообщениям
Вы не можете скачивать файлы