Мастер и Маргарита [01-10 из 10] (2005) DVDRip-AVC

 
Автор Сообщение

Белочка ®

Пол:

Стаж: 5 лет 1 месяц

Сообщений: 2089



Награды: 1 (Подробнее)

Girls (Количество: 1)
Торрент-статистика

Создавать темы 17-Янв-2015 13:58

[Цитировать]

-- Информация о фильме
Оригинальное название: Мастер и Маргарита
Год выхода: 2005
Жанр: Мистика, драма
Режиссер: Владимир Бортко
В ролях: Александр Галибин, Анна Ковальчук, Олег Басилашвили, Кирилл Лавров, Сергей Безруков, Владислав Галкин, Александр Адабашьян, Александр Абдулов, Александр Филиппенко, Вано Миранян, Александр Баширов, Валентин Гафт, Александр Панкратов-Черный, Илья Олейников, Валерий Золотухин, Роман Карцев, Станислав Ландграф, Любомирас Лауцявичюс, Сергей Мучеников, Александр Чабан, Леонид Максимов, Олег Сорокин, Николай Буров, Станислав Соколов, Андрей Шарков, Василий Ливанов, Андрей Ургант, Валентин Смирнитский, Татьяна Ткач, Геннадий Богачев, Семен Стругачев, Владислава Назарова, Виктор Смирнов, Наталья Суркова, Евгений Меркурьев, Иван Краско
О фильме:
Однажды весною, в час небывало жаркого заката, в Москве, на Патриарших прудах, появились два гражданина. Первый из них, одетый в летнюю серенькую пару, был маленького роста, упитан, лыс, свою приличную шляпу пирожком нес в руке, а на хорошо выбритом лице его помещались сверхъестественных размеров очки в черной роговой оправе. Второй — плечистый, рыжеватый, вихрастый молодой человек в заломленной на затылок клетчатой кепке — был в ковбойке, жеваных белых брюках и в черных тапочках.

Страна: Россия
Студия: Телеканал РОССИЯ, Центрл Партнёршип, Студия 2-В-2, ООО СР Диджитал.
Продолжительность: 10 серий x ~00:50:00 = 08:16:22
Перевод: Оригинал
Файл
Кодек: x264
Качество: DVDRip-AVC
Видео: High@L4.1, 1024 x 576, 25.000 fps, ~1800 Кб/сек
Звук: АС3, 6ch, 448 Кб/сек
Субтитры: Нет

M/I

General
Unique ID : 226744021451331054457917358551693410109 (0xAA954F603FB0DE6AAE6B5323F79E3F3D)
Complete name : F:СериалыМастер.и.Маргарита.2005.DVDRIP_AVC1-02_Master.i.Margerita.(2005).DVDRip_AVC.[DoMiNo].mkv
Format : Matroska
Format version : Version 2
File size : 1.43 GiB
Duration : 1h 31mn
Overall bit rate : 2 246 Kbps
Encoded date : UTC 2015-01-13 21:43:11
Writing application : mkvmerge v6.1.0 ('Old Devil') built on Mar 4 2013 09:10:42
Writing library : libebml v1.3.0 + libmatroska v1.4.0
Video
ID : 1
Format : AVC
Format/Info : Advanced Video Codec
Format profile : High@L4.1
Format settings, CABAC : Yes
Format settings, ReFrames : 12 frames
Codec ID : V_MPEG4/ISO/AVC
Duration : 1h 31mn
Bit rate : 1 800 Kbps
Width : 1 024 pixels
Height : 576 pixels
Display aspect ratio : 16:9
Frame rate mode : Constant
Frame rate : 25.000 fps
Color space : YUV
Chroma subsampling : 4:2:0
Bit depth : 8 bits
Scan type : Progressive
Bits/(Pixel*Frame) : 0.122
Stream size : 1.12 GiB (78%)
Writing library : x264 core 130 r2273 b3065e6
Encoding settings : cabac=1 / ref=12 / deblock=1:-3:-3 / analyse=0x3:0x133 / me=umh / subme=11 / psy=1 / psy_rd=1.00:0.50 / mixed_ref=1 / me_range=32 / chroma_me=1 / trellis=2 / 8x8dct=1 / cqm=0 / deadzone=21,11 / fast_pskip=0 / chroma_qp_offset=-3 / threads=14 / lookahead_threads=3 / sliced_threads=0 / slices=4 / nr=0 / decimate=0 / interlaced=0 / bluray_compat=0 / constrained_intra=0 / bframes=11 / b_pyramid=2 / b_adapt=2 / b_bias=0 / direct=3 / weightb=1 / open_gop=0 / weightp=2 / keyint=250 / keyint_min=25 / scenecut=40 / intra_refresh=0 / rc=2pass / mbtree=0 / bitrate=1800 / ratetol=1.0 / qcomp=0.60 / qpmin=0 / qpmax=69 / qpstep=4 / cplxblur=20.0 / qblur=0.5 / ip_ratio=1.40 / pb_ratio=1.30 / aq=1:1.00
Default : Yes
Forced : No
Audio
ID : 2
Format : AC-3
Format/Info : Audio Coding 3
Mode extension : CM (complete main)
Format settings, Endianness : Big
Codec ID : A_AC3
Duration : 1h 31mn
Bit rate mode : Constant
Bit rate : 448 Kbps
Channel(s) : 6 channels
Channel positions : Front: L C R, Side: L R, LFE
Sampling rate : 48.0 KHz
Bit depth : 16 bits
Compression mode : Lossy
Stream size : 292 MiB (20%)
Default : Yes
Forced : No
-- --
[Профиль] [ЛС]
Показать сообщения:    

Текущее время: Сегодня 20:58

Часовой пояс: GMT



Вы не можете начинать темы
Вы не можете отвечать на сообщения
Вы не можете редактировать свои сообщения
Вы не можете удалять свои сообщения
Вы не можете голосовать в опросах
Вы не можете прикреплять файлы к сообщениям
Вы не можете скачивать файлы