(Heavy Metal) Мастер - Дискография (25CD) 1987 - 2010 [Ape, FLAC, image +.cue, lossless]

 
Автор Сообщение

sergej644 ®

Пол:

Стаж: 5 лет 11 месяцев

Сообщений: 6169

Откуда: Soviet Union



Награды: 9 (Подробнее)

Top Seeder 5 (Количество: 1) Top Seeder 4 (Количество: 1) Top Seeder 2 (Количество: 1)
Торрент-статистика

Создавать темы 07-Авг-2017 09:02

[Цитировать]

-Мастер - Дискография (25CD)--
Год издания: 1987 - 2010
Страна: USSR, Russia |
Жанр: Heavy Metal
Продолжительность: 19:43:50-Лейбл издания: CD-MAXIMUM, Moroz Records, Soyz, FLAM Records
Страна-выпуска диска: Russia, Sweden -Формат: Ape, FLAC
Битрейт аудио: Lossless
Тип рипа: image +.cue
Наличие сканов в содержимом раздачи: да
-

Трэклист

1987 - Master - Master 1987 (2002) | 00:47:28


01.Мастер (4:04)
02.Берегись (4:01)
03.Руки прочь (5:14)
04.Щит и меч (4:53)
05.Еще раз ночь (5:35)
06.Воля и разум (4:20)
07.Встань, страх преодолей (4:05)
08.Храни меня (6:04)
09.Кто кого? (2:49)
10.Здесь куют металл (live) (6:23)

1987 - Master - Master (2007, CD-MAXIMUM, RU, CDM 0207-2680) | 00:41:15


01.Мастер (4:06)
02.Берегись (4:02)
03.Руки Прочь (5:16)
04.Щит и Меч (4:56)
05.Ещё Раз Ночь (5:36)
06.Воля и Разум (4:19)
07.Встань, Страх Преодолей (4:06)
08.Храни Меня (6:06)
09.Кто Кого? (2:47)

1989 - Мастер - С петлей на шее (1995, Soyz, RU, MS - 025) | 00:31:18


01.Не хотим (3:57)
02.Палачи (4:19)
03.Мы не рабы? (3:04)
04.Когда я умру_ (1:55)
05.Боже, храни нашу злость (3:37)
06.Наплевать! (3:31)
07.Амстердам (1:32)
08.Иуда (3:43)
09.Война (1:36)
10.Семь кругов ада (3:25)
11.С петлёй на шее (0:39)

1989 - Мастер - С петлей на шее (Edition 2002) | 00:36:00


01.Не хотим (3:56)
02.Палачи (4:19)
03.Мы не рабы? (3:05)
04.Когда я умру (1:55)
05.Боже, храни нашу злость (3:37)
06.Наплевать! (3:31)
07.Амстердам (Бас соло) (1:33)
08.2000 лет (Иуда) (3:43)
09.Война (1:36)
10.Семь кругов ада (3:25)
11.С петлей на шее (0:41)
12.Мастер (live) (4:40)

1989 - Мастер - С петлей на шее (Remastered 2007, CD-MAXIMUM, RU, CDM 0207-2681) | 00:31:35


01.Не хотим (3:59)
02.Палачи (4:21)
03.Мы не рабы? (3:06)
04.Когда я умру_ (1:57)
05.Боже, храни нашу злость (3:39)
06.Наплевать! (3:33)
07.Амстердам (1:33)
08.Иуда (3:43)
09.Война (1:37)
10.Семь кругов ада (3:27)
11.С петлёй на шее (0:39)

1991 - Мастер - Talk Of The Devil (2002, Moroz Records, RU, MR 02444 CD) | 00:38:20


01.Intro Golgotha (2:08)
02.Talk Of The Devil (4:22)
03.Danger (4:04)
04.Fallen Angel (4:39)
05.Live To Die (3:58)
06.Tsar (3:41)
07.Heroes (4:05)
08.Romance (bass solo) (1:28)
09.I Hate Your Sex (2:23)
10.Paranoid (2:39)
11.Lock Them In The Graves (live) (4:54)

1991 - Мастер - Talk Of The Devil (2007, CD-MAXIMUM, RU, CDM 0207-2682) | 00:33:46


01.Intro Golgotha (2:08)
02.Talk of the Devil (4:23)
03.Danger (4:08)
04.Fallen Angel (4:42)
05.Live to Die (4:02)
06.Tsar (3:44)
07.Heroes (4:06)
08.Romance (bass solo) (1:32)
09.I Hate Your Sex (2:24)
10.Paranoid (2:38)

1994 - Мастер - Maniac Party (1994, Apex, RU, AXCD-2-0035) | 00:37:31


01.Beastie generation (7:35)
02.Maniac party (4:41)
03.Lock them in graves (5:48)
04.Burning in hell (Civil war disaster) (3:41)
05.Screams of pain (3:47)
06.Time X (bass solo) (1:25)
07.They are just like us (5:44)
08.Punk guys (3:10)
09.Go (1:40)

1994 - Мастер - Maniac Party (2002, Moroz Records, RU, MR 02445 CD) | 00:41:18


01.Beastie Generation (7:29)
02.Maniac Party (4:37)
03.Lock Them In Graves (5:46)
04.Burning In Hell (Civil Var Disaster) (3:40)
05.Screams Of Pain (3:47)
06.Time X (bass solo) (1:23)
07.They Are Just Like Us (5:41)
08.Punk Guys (3:10)
09.Go (1:42)
10.Danger (Live) bonus (4:04)

1994 - Мастер - Maniac Party (2007, CD-MAXIMUM, RU, CDM 0207-2683) | 00:37:43


01.Beastie generation (7:35)
02.Maniac party (4:43)
03.Lock them in graves (5:50)
04.Burning in hell (Civil war disaster) (3:43)
05.Screams of pain (3:48)
06.Time X (bass solo) (1:27)
07.They are just like us (5:46)
08.Punk guys (3:12)
09.Go (1:40)

1995 - Мастер - Live | 01:00:02


01.Intro (0:25)
02.Beastie Generation (4:52)
03.Tsar (3:49)
04.Danger (4:04)
05.Live To Die (3:51)
06.Lock Them In Graves (5:09)
07.Screams Of Pain (3:41)
08.Punk Guys (2:34)
09.Palachi (4:19)
10.Master (4:40)
11.Volya I Razum (10:44)
12.Smoke On The Water (5:15)
13.Zdes' Kuyut Metall (6:39)

1996 - Мастер - Песни мертвых (1996, FLAM Records, Sweden, FLAM 003-96) | 00:41:33


01.Песни Мертвых (5:56)
02.Дикие Гуси (4:28)
03.Дайте Свет (4:13)
04.Пепел На Втеру (4:40)
05.Надоело (2:57)
06.Только Ты Сам (3:24)
07.Я Не Хочу Войны (3:29)
08.Тату (3:24)
09.Ночь (4:59)
10.Корабль Дураков (4:03)

1996 - Мастер - Песни мертвых (2002, Moroz Recods, RU, MR 02446 CD) | 00:44:00


01.Песни Мертвых (5:57)
02.Дикие Гуси (4:28)
03.Дайте Свет (4:13)
04.Пепел На Втеру (4:40)
05.Надоело (2:57)
06.Только Ты Сам (3:24)
07.Я Не Хочу Войны (3:29)
08.Тату (3:23)
09.Ночь (4:59)
10.Корабль Дураков (4:03)
11.Punk Guys (live) (2:27)

1996 - Мастер - Песни мертвых (2007, CD-MAXIMUM, RU, CDM 0207-2685) | 00:41:48


01.Intra / Pesni mertvih (5:59)
02.Dikie gusi (4:30)
03.Dayte svet (4:14)
04.Pepel na vetru (4:42)
05.Nadoelo (2:59)
06.Tolko ti sam (3:26)
07.Ya ne hochu voini (3:31)
08.Tatu (3:26)
09.Noch (5:01)
10.Korabl` durakov (4:01)

1997 - Мастер - The Best. Концерт В Москве 1997 | 01:13:51


01.Песни Мертвых (5:07)
02.Корабль Дураков (4:07)
03.Надоело (2:44)
04.Я Не Хочу Войны (3:53)
05.Пепел На Ветру (4:52)
06.Tatoo (3:30)
07.Danger (5:53)
08.Lock Them In Gravse (4:35)
09.Не Хотим (3:45)
10.Еще Раз Ночь (3:06)
11.Мастер (5:06)
12.Здесь Куют Металл (11:33)
13.Воля И Разум (8:11)
14.Бас Соло (7:28)

2001 - Мастер - Лабиринт (2002, Moroz Records, RU, MR 02448 CD) | 00:51:12


01.Места хватит всем (6:51)
02.Лабиринт (6:08)
03.Високосный век (6:31)
04.Кресты (5:38)
05.Сон (6:39)
06.Instrumental (1:50)
07.Металл доктор (5:12)
08.Охотники за счастьем (6:50)
09.Никто не забыт, ничто не забыто(бас соло) (2:56)
10.Руки прочь (2:38)

2001 - Мастер - Лабиринт (2007, CD-MAXIMUM, RU, CDM 0207-2687) | 00:51:27


01.Места хватит всем (6:51)
02.Лабиринт (6:10)
03.Високосный век (6:32)
04.Кресты (5:39)
05.Сон (6:41)
06.Instrumental (1:52)
07.Металл доктор (5:14)
08.Охотники за счастьем (6:52)
09.Никто не забыт, ничто не забыто(бас соло) (2:58)
10.Руки прочь (2:38)

2002 - Мастер - Классика (1987 - 2002) (2002, Moroz Records, RU, MR53502 CD) | 00:46:02


01.Интродукция (1:00)
02.Лабиринт (3:49)
03.С кем ты? (4:25)
04.Еще раз ночь (3:02)
05.Только ты сам (3:24)
06.Кресты (5:03)
07.2000 лет (Иуда) (3:43)
08.Амстердам (бас-соло) (1:33)
09.Тореро (4:29)
10.Небо в глазах (3:22)
11.Встань, страх преодалей (4:34)
12.Тату (концертная версия) (3:15)
13.Воля и разум (4:13)
14.Эпилог (0:11)

2002 - Мастер - Легенды русского рока (Moroz Records, RU, MR 02490 CD) | 01:16:40


01.Берегись (4:00)
02.Руки прочь (5:13)
03.Кто кого (2:49)
04.Щит и меч (4:53)
05.Мастер (4:03)
06.Палачи (4:20)
07.Наплевать (3:30)
08.Мы не рабы (3:05)
09.Heroes (4:05)
10.They are just kike us (5:41)
11.Пепел на ветру (4:40)
12.Надоело (2:57)
13.Бас соло (7:25)
14.Здесь куют металл (5:02)
15.Таран (2:39)
16.Кресты (5:34)
17.Места хватит всем (6:45)

2004 - Мастер - 33 жизни (2006, CD-MAXIMUM, RU, CDM0506-2519) | 00:45:59


01.Игра (3:50)
02.Мастер Скорбных Дел (3:59)
03.Вера Горит на Кострах (5:03)
04.33 Жизни (3:55)
05.Экспресс (4:06)
06.Глоток Огня (3:08)
07.Война Миров (соло для бас-гитары с группой) (1:36)
08.Heavy Lambada (3:20)
09.Снежный Охотник (3:37)
10.Drum-Parad (1:55)
11.Стихия (4:12)
12.С Уважением (2:04)
13.XXL (0:06)
14.Intro (1:15)
15.Дети Подземелья (3:54)

2005 - Мастер - Акустика (CD-MAXIMUM, RU, CDM 0905-2409) | 00:48:40


01.Плач Свирели (3:55)
02.Тореро (5:03)
03.Високосный Век (5:28)
04.33 Жизни (3:40)
05.Палачи (4:10)
06.Heavy Ламбада (4:47)
07.Пепел На Ветру (4:16)
08.Игра (4:02)
09.Кресты (6:26)
10.Здесь Куют Металл (4:55)
11.Ветер (1:58)

2006 - Мастер - По ту сторону сна (CD-MAXIMUM, RU, CDM 0506-2521) | 01:02:15


01.Танец (5:05)
02.Гений Рока (3:32)
03.Музыка Сфер (4:32)
04.За Гранью (4:43)
05.Песня Аннушки (0:43)
06.Смерть Берлиоза (0:29)
07.Конферанс (0:17)
08.Мечтай (4:42)
09.Война (live in studio) (1:01)
10.По Ту Сторону Сна (часть 1) (3:37)
11.Лес Брокилон (2:37)
12.Крысы (4:59)
13.Сын Камня (3:51)
14.Время Варваров (3:28)
15.Live In Studio (1:53)
16.Omut (0:37)
17.Мраморный Ангел (4:04)
18.По Ту Сторону Сна (часть 2) (live in studio) (3:31)
19.Бардак (1:25)
20.Бардак 2 (7:09)

2008 - Мастер - XX лет (LIVE) (2CD) (CD-MAXIMUM, RU, CDM 0608-2889 | 00:52:30 + 00:56:17

CD 1


01.Игра (4:53)
02.Вера Горит На Кострах (4:48)
03.Места Хватит Всем (5:13)
04.Тату (4:42)
05.Песни Мертвых (5:20)
06.Кресты (7:27)
07.33 Жизни (3:48)
08.Heavy Ламбада (5:50)
09.Только Ты Сам (4:35)
10.За Гранью (5:53)

CD 2


01.Пепел На Ветру (4:42)
02.Heroes (3:43)
03.Руки Прочь (5:05)
04.Не Хотим (3:34)
05.Палачи (5:22)
06.Еще Раз Ночь (4:58)
07.Тореро (5:53)
08.Без Тебя (4:36)
09.Здесь Куют Металл (7:13)
10.Встрань, Страх Преодолей (4:11)
11.Мастер (7:01)

2010 - Мастер - VIII (CD-MAXIMUM, RU, CDM 0910-2985 | 00:55:20


01.Восьмая дверь (Intro) (1:02)
02.Замри! (4:02)
03.Бульдозер (4:59)
04.Суд идет (6:17)
05.Большой брат (4:14)
06.Воздух! (4:55)
07.Стальная дверь (3:37)
08.Человек-саранча (5:10)
09.Рубите мачты! (3:49)
10.Берег иллюзий (бас-соло) (2:04)
11.Kings Of Rock-n-Roll (RU) (5:07)
Bonus tracks:
12.Они как мы (5:20)
13.Kings Of Rock-n-Roll (ENG) (3:37)
14.Начало восьмого (1:04)

Дополнительная информация

В феврале 1987 года после распада рок-группы "АРИЯ" пятеро ее участников (Алик Грановский, Андрей Большаков, Игорь Молчанов, Александр Львов и Кирилл Покровский) уходят из коллектива, создав собственную группу "МАСТЕР". Львов позже ушел в группу "ПАРК ГОРЬКОГО". Пришел гитарист Сергей Попов. Вокалистом "МАСТЕРА" стал Александр Арзамасков. В том же году группа дала первые концерты. Песни, рассчитанные на более высокий, чем у Арзамаскова, вокал, привели к тому, что он сорвал голос. На замену ему пришел Георгий Корнеев, но тоже очень скоро покинул группу.
Летом 1987 года постоянным вокалистом группы стал Михаил Серышев, с которым группа записала первый студийный альбом "Мастер".
В альбом вошли песни "АРИИ" авторства Большакова и новые песни в стиле "trash metal".Группа активно гастролирует в СССР, Польше, Бельгии.
В 1989 году "МАСТЕР" принимает участие в первом фестивале "Монстры рока СССР" и записывает второй альбом "С петлей на шее", признанный лучшим метал-альбомом года. Альбом записывался на квартире звукорежиссера, поэтому партия ударных была "исполнена" компьютером.
В 1989-1991 годах "МАСТЕР" работает в Бельгии, готовя англоязычный альбом "Empire of Evil". Из-за банкротства звукозаписывающей компании альбом в Бельгии не вышел.
В 1991 году группа возвращается в Россию. Кирилл Покровский и Игорь Молчанов остаются в Бельгии, Сергей Попов работает как сессионный музыкант.
В 1992 году выходит англоязычный альбом "Talk of the Devil". В записи альбома принимало участие пять разных барабанщиков.
Весной 1992 года "МАСТЕР" принимает участие в туре с группой "SEPULTURA".
В 1993 году Андрей Большаков уходит из группы.
В 1994 году выходит четвертый (тоже англоязычный) альбом "Maniac Party"
В середине 90-х популярность "trash metal", а с ним и группы упала. "МАСТЕР" выступает с Валерием Кипеловым, ушедшим из "АРИИ". Алик Грановский участвует в альбоме Кипелова и Маврина "Смутное время".
В 1996 году выходит русскоязычный альбом "Песни мертвых", вновь поднявший популярность "МАСТЕРА".
В 1997 году на гастроли во Францию "МАСТЕР" едет с сессионным вокалистом Артуром Беркутом.
В 1999 году Михаил Серышев окончательно покинул группу. На смену ему приходит новый вокалист Lexx (Алексей Кравченко).
В этом же году был записан и издан в 2001 году новый альбом "Лабиринт".
В 2004 году выходит сольный альбом Алика Грановского "Большая прогулка" и студийный альбом "33 жизни".
В 2005 году выходит концертный альбом "Акустика".
В 2006 году в сотрудничестве с М.Пушкиной записывается экспериментальный альбом "По ту сторону сна".
В 2008 году - альбом "ХХ лет" с юбилейного концерта группы.
В 2010 году выходит восьмой студийный альбом "VIII".
В 2012 году группа "МАСТЕР" отмечает свое XXV-летие.
В 2017 году группе "Мастер" 30 лет!!!
--
[Профиль] [ЛС]

sergej644 ®

Пол:

Стаж: 5 лет 11 месяцев

Сообщений: 6169

Откуда: Soviet Union



Награды: 9 (Подробнее)

Top Seeder 4 (Количество: 1) Mega Seeder 5 (Количество: 1) Top Seeder 2 (Количество: 1)
Торрент-статистика

Создавать темы 07-Авг-2017 09:05 (спустя 2 минуты)

[Цитировать]

1987 - Master - Master 1987 (2002)

Лог создания рипа

EAC extraction logfile from 15. February 2008, 18:38 for CD
Мастер / Мастер
Used drive  : Optiarc DVD RW AD-7543A   Adapter: 1  ID: 0
Read mode   : Secure with NO C2, accurate stream, disable cache
Read offset correction : 48
Overread into Lead-In and Lead-Out : No
Used output format : Internal WAV Routines
                     44.100 Hz; 16 Bit; Stereo
Other options      :
    Fill up missing offset samples with silence : Yes
    Delete leading and trailing silent blocks : No
    Native Win32 interface for Win NT & 2000
Range status and errors
Selected range
     Filename D:\MasterXX_FULL\01-Master\Edition2002\Мастер - Мастер.wav
     Peak level 99.9 %
     Range quality 99.9 %
     CRC 12A95597
     Copy OK
No errors occured
End of status report

Индексная карта (non-compilant .cue)

REM GENRE Metal
REM DATE 1987
REM DISCID 950B1F0A
REM COMMENT "ExactAudioCopy v0.95b4"
PERFORMER "Мастер"
TITLE "Мастер"
FILE "Мастер - Мастер.ape" WAVE
  TRACK 01 AUDIO
    TITLE "Мастер"
    PERFORMER "Мастер"
    INDEX 01 00:00:00
  TRACK 02 AUDIO
    TITLE "Берегись"
    PERFORMER "Мастер"
    INDEX 00 04:01:72
    INDEX 01 04:03:72
  TRACK 03 AUDIO
    TITLE "Руки прочь"
    PERFORMER "Мастер"
    INDEX 00 08:02:43
    INDEX 01 08:04:43
  TRACK 04 AUDIO
    TITLE "Щит и меч"
    PERFORMER "Мастер"
    INDEX 00 13:16:38
    INDEX 01 13:18:39
  TRACK 05 AUDIO
    TITLE "Еще раз ночь"
    PERFORMER "Мастер"
    INDEX 00 18:10:01
    INDEX 01 18:12:01
  TRACK 06 AUDIO
    TITLE "Воля и разум"
    PERFORMER "Мастер"
    INDEX 00 23:45:10
    INDEX 01 23:47:11
  TRACK 07 AUDIO
    TITLE "Встань, страх преодолей"
    PERFORMER "Мастер"
    INDEX 00 28:05:02
    INDEX 01 28:07:03
  TRACK 08 AUDIO
    TITLE "Храни меня"
    PERFORMER "Мастер"
    INDEX 00 32:10:30
    INDEX 01 32:12:30
  TRACK 09 AUDIO
    TITLE "Кто кого?"
    PERFORMER "Мастер"
    INDEX 00 38:13:68
    INDEX 01 38:15:69
  TRACK 10 AUDIO
    TITLE "Здесь куют металл (live)"
    PERFORMER "Мастер"
    INDEX 00 41:03:24
    INDEX 01 41:05:23

1987 - Master - Master (2007, CD-MAXIMUM, RU, CDM 0207-2680)

Лог создания рипа

EAC extraction logfile from 20. May 2007, 22:45 for CD
Мастер / Мастер
Used drive  : PIONEER DVD-RW  DVR-K12D   Adapter: 1  ID: 0
Read mode   : Secure with NO C2, accurate stream, disable cache
Read offset correction : 48
Overread into Lead-In and Lead-Out : No
Used output format : Internal WAV Routines
                     44.100 Hz; 16 Bit; Stereo
Other options      :
    Fill up missing offset samples with silence : Yes
    Delete leading and trailing silent blocks : No
    Native Win32 interface for Win NT & 2000
Range status and errors
Selected range
     Filename C:\Мастер XX лет\Мастер - Мастер.wav
     Peak level 100.0 %
     Range quality 100.0 %
     CRC 21D996A7
     Copy OK
No errors occured
End of status report

Индексная карта (non-compilant .cue)

REM GENRE Metal
REM DATE 1995
REM DISCID 6C09AA09
REM COMMENT "ExactAudioCopy v0.95b4"
PERFORMER "Мастер"
TITLE "Мастер"
FILE "Мастер - Мастер.ape" WAVE
  TRACK 01 AUDIO
    TITLE "Мастер"
    PERFORMER "Мастер"
    FLAGS DCP
    INDEX 01 00:00:00
  TRACK 02 AUDIO
    TITLE "Берегись"
    PERFORMER "Мастер"
    FLAGS DCP
    INDEX 00 04:04:06
    INDEX 01 04:06:06
  TRACK 03 AUDIO
    TITLE "Руки Прочь"
    PERFORMER "Мастер"
    FLAGS DCP
    INDEX 00 08:06:06
    INDEX 01 08:08:06
  TRACK 04 AUDIO
    TITLE "Щит и Меч"
    PERFORMER "Мастер"
    FLAGS DCP
    INDEX 00 13:21:48
    INDEX 01 13:23:48
  TRACK 05 AUDIO
    TITLE "Ещё Раз Ночь"
    PERFORMER "Мастер"
    FLAGS DCP
    INDEX 00 18:18:01
    INDEX 01 18:20:01
  TRACK 06 AUDIO
    TITLE "Воля и Разум"
    PERFORMER "Мастер"
    FLAGS DCP
    INDEX 00 23:54:28
    INDEX 01 23:56:28
  TRACK 07 AUDIO
    TITLE "Встань, Страх Преодолей"
    PERFORMER "Мастер"
    FLAGS DCP
    INDEX 00 28:13:34
    INDEX 01 28:15:34
  TRACK 08 AUDIO
    TITLE "Храни Меня"
    PERFORMER "Мастер"
    FLAGS DCP
    INDEX 00 32:19:68
    INDEX 01 32:21:68
  TRACK 09 AUDIO
    TITLE "Кто Кого?"
    PERFORMER "Мастер"
    FLAGS DCP
    INDEX 00 38:26:13
    INDEX 01 38:28:13

1989 - Мастер - С петлей на шее (1995, Soyz, RU, MS - 025)

Лог создания рипа

EAC extraction logfile from 15. February 2008, 18:07 for CD
МАСТЕР / С петлёй на шее
Used drive  : Optiarc DVD RW AD-7543A   Adapter: 1  ID: 0
Read mode   : Secure with NO C2, accurate stream, disable cache
Read offset correction : 48
Overread into Lead-In and Lead-Out : No
Used output format : Internal WAV Routines
                     44.100 Hz; 16 Bit; Stereo
Other options      :
    Fill up missing offset samples with silence : Yes
    Delete leading and trailing silent blocks : No
    Native Win32 interface for Win NT & 2000
Range status and errors
Selected range
     Filename D:\MasterXX_FULL\02-S Petlei Na Shee\Edition1995\МАСТЕР - С петлёй на шее.wav
     Peak level 89.1 %
     Range quality 99.9 %
     CRC 512781AD
     Copy OK
No errors occured
End of status report

Индексная карта (non-compilant .cue)

REM GENRE "Heavy Metal"
REM DATE 1989
REM DISCID 9407570B
REM COMMENT "ExactAudioCopy v0.95b4"
PERFORMER "МАСТЕР"
TITLE "С петлёй на шее"
FILE "МАСТЕР - С петлёй на шее.ape" WAVE
  TRACK 01 AUDIO
    TITLE "Не хотим"
    PERFORMER "МАСТЕР"
    INDEX 00 00:00:00
    INDEX 01 00:00:70
  TRACK 02 AUDIO
    TITLE "Палачи"
    PERFORMER "МАСТЕР"
    INDEX 00 03:56:47
    INDEX 01 03:58:07
  TRACK 03 AUDIO
    TITLE "Мы не рабы?"
    PERFORMER "МАСТЕР"
    INDEX 00 08:16:05
    INDEX 01 08:17:40
  TRACK 04 AUDIO
    TITLE "Когда я умру_"
    PERFORMER "МАСТЕР"
    INDEX 00 11:20:40
    INDEX 01 11:22:00
  TRACK 05 AUDIO
    TITLE "Боже, храни нашу злость"
    PERFORMER "МАСТЕР"
    INDEX 00 13:15:57
    INDEX 01 13:17:17
  TRACK 06 AUDIO
    TITLE "Наплевать!"
    PERFORMER "МАСТЕР"
    INDEX 00 16:52:35
    INDEX 01 16:53:70
  TRACK 07 AUDIO
    TITLE "Амстердам"
    PERFORMER "МАСТЕР"
    INDEX 00 20:23:20
    INDEX 01 20:24:55
  TRACK 08 AUDIO
    TITLE "Иуда"
    PERFORMER "МАСТЕР"
    INDEX 00 21:55:47
    INDEX 01 21:57:07
  TRACK 09 AUDIO
    TITLE "Война"
    PERFORMER "МАСТЕР"
    INDEX 00 25:38:32
    INDEX 01 25:39:67
  TRACK 10 AUDIO
    TITLE "Семь кругов ада"
    PERFORMER "МАСТЕР"
    INDEX 00 27:14:05
    INDEX 01 27:15:40
  TRACK 11 AUDIO
    TITLE "С петлёй на шее"
    PERFORMER "МАСТЕР"
    INDEX 00 30:39:00
    INDEX 01 30:40:35

1989 - Мастер - С петлей на шее (Edition 2002)

Лог создания рипа

EAC extraction logfile from 15. February 2008, 17:20 for CD
Мастер / С петлей на шее
Used drive  : Optiarc DVD RW AD-7543A   Adapter: 1  ID: 0
Read mode   : Secure with NO C2, accurate stream, disable cache
Read offset correction : 48
Overread into Lead-In and Lead-Out : No
Used output format : Internal WAV Routines
                     44.100 Hz; 16 Bit; Stereo
Other options      :
    Fill up missing offset samples with silence : Yes
    Delete leading and trailing silent blocks : No
    Native Win32 interface for Win NT & 2000
Range status and errors
Selected range
     Filename D:\MasterXX_FULL\02-S Petlei Na Shee\Edition2002\Мастер - С петлей на шее.wav
     Peak level 99.9 %
     Range quality 100.0 %
     CRC DDA4527B
     Copy OK
No errors occured
End of status report

Индексная карта (non-compilant .cue)

REM GENRE "Hard Rock"
REM DATE 1989
REM DISCID A508700C
REM COMMENT "ExactAudioCopy v0.95b4"
PERFORMER "Мастер"
TITLE "С петлей на шее"
FILE "Мастер - С петлей на шее.ape" WAVE
  TRACK 01 AUDIO
    TITLE "Не хотим"
    PERFORMER "Мастер"
    INDEX 01 00:00:00
  TRACK 02 AUDIO
    TITLE "Палачи"
    PERFORMER "Мастер"
    INDEX 00 03:54:35
    INDEX 01 03:56:35
  TRACK 03 AUDIO
    TITLE "Мы не рабы?"
    PERFORMER "Мастер"
    INDEX 00 08:13:66
    INDEX 01 08:15:67
  TRACK 04 AUDIO
    TITLE "Когда я умру"
    PERFORMER "Мастер"
    INDEX 00 11:18:35
    INDEX 01 11:20:36
  TRACK 05 AUDIO
    TITLE "Боже, храни нашу злость"
    PERFORMER "Мастер"
    INDEX 00 13:13:61
    INDEX 01 13:15:61
  TRACK 06 AUDIO
    TITLE "Наплевать!"
    PERFORMER "Мастер"
    INDEX 00 16:50:48
    INDEX 01 16:52:49
  TRACK 07 AUDIO
    TITLE "Амстердам (Бас соло)"
    PERFORMER "Мастер"
    INDEX 00 20:21:41
    INDEX 01 20:23:42
  TRACK 08 AUDIO
    TITLE "2000 лет (Иуда)"
    PERFORMER "Мастер"
    INDEX 00 21:54:18
    INDEX 01 21:56:18
  TRACK 09 AUDIO
    TITLE "Война"
    PERFORMER "Мастер"
    INDEX 00 25:37:18
    INDEX 01 25:39:19
  TRACK 10 AUDIO
    TITLE "Семь кругов ада"
    PERFORMER "Мастер"
    INDEX 00 27:13:00
    INDEX 01 27:15:00
  TRACK 11 AUDIO
    TITLE "С петлей на шее"
    PERFORMER "Мастер"
    INDEX 00 30:38:00
    INDEX 01 30:40:00
  TRACK 12 AUDIO
    TITLE "Мастер (live)"
    PERFORMER "Мастер"
    INDEX 00 31:18:44
    INDEX 01 31:20:45

1989 - Мастер - С петлей на шее (Remastered 2007, CD-MAXIMUM, RU, CDM 0207-2681)

Лог создания рипа

EAC extraction logfile from 20. May 2007, 22:28 for CD
МАСТЕР / С петлёй на шее
Used drive  : PIONEER DVD-RW  DVR-K12D   Adapter: 1  ID: 0
Read mode   : Secure with NO C2, accurate stream, disable cache
Read offset correction : 48
Overread into Lead-In and Lead-Out : No
Used output format : Internal WAV Routines
                     44.100 Hz; 16 Bit; Stereo
Other options      :
    Fill up missing offset samples with silence : Yes
    Delete leading and trailing silent blocks : No
    Native Win32 interface for Win NT & 2000
Range status and errors
Selected range
     Filename C:\Мастер XX лет\МАСТЕР - С петлёй на шее.wav
     Peak level 100.0 %
     Range quality 100.0 %
     CRC 5B84D0C4
     Copy OK
No errors occured
End of status report

Индексная карта (non-compilant .cue)

REM GENRE "Heavy Metal"
REM DATE 1989
REM DISCID 7F07660B
REM COMMENT "ExactAudioCopy v0.95b4"
PERFORMER "МАСТЕР"
TITLE "С петлёй на шее"
FILE "МАСТЕР - С петлёй на шее.ape" WAVE
  TRACK 01 AUDIO
    TITLE "Не хотим"
    PERFORMER "МАСТЕР"
    FLAGS DCP
    INDEX 01 00:00:00
  TRACK 02 AUDIO
    TITLE "Палачи"
    PERFORMER "МАСТЕР"
    FLAGS DCP
    INDEX 00 03:57:12
    INDEX 01 03:59:12
  TRACK 03 AUDIO
    TITLE "Мы не рабы?"
    PERFORMER "МАСТЕР"
    FLAGS DCP
    INDEX 00 08:18:36
    INDEX 01 08:20:36
  TRACK 04 AUDIO
    TITLE "Когда я умру_"
    PERFORMER "МАСТЕР"
    FLAGS DCP
    INDEX 00 11:24:56
    INDEX 01 11:26:56
  TRACK 05 AUDIO
    TITLE "Боже, храни нашу злость"
    PERFORMER "МАСТЕР"
    FLAGS DCP
    INDEX 00 13:21:54
    INDEX 01 13:23:54
  TRACK 06 AUDIO
    TITLE "Наплевать!"
    PERFORMER "МАСТЕР"
    FLAGS DCP
    INDEX 00 17:00:32
    INDEX 01 17:02:32
  TRACK 07 AUDIO
    TITLE "Амстердам"
    PERFORMER "МАСТЕР"
    FLAGS DCP
    INDEX 00 20:33:05
    INDEX 01 20:35:05
  TRACK 08 AUDIO
    TITLE "Иуда"
    PERFORMER "МАСТЕР"
    FLAGS DCP
    INDEX 00 22:06:34
    INDEX 01 22:08:34
  TRACK 09 AUDIO
    TITLE "Война"
    PERFORMER "МАСТЕР"
    FLAGS DCP
    INDEX 00 25:49:65
    INDEX 01 25:51:65
  TRACK 10 AUDIO
    TITLE "Семь кругов ада"
    PERFORMER "МАСТЕР"
    FLAGS DCP
    INDEX 00 27:27:26
    INDEX 01 27:29:26
  TRACK 11 AUDIO
    TITLE "С петлёй на шее"
    PERFORMER "МАСТЕР"
    FLAGS DCP
    INDEX 00 30:54:21
    INDEX 01 30:56:21

1991 - Мастер - Talk Of The Devil (2002, Moroz Records, RU, MR 02444 CD)

Лог создания рипа

EAC extraction logfile from 15. February 2008, 22:25 for CD
Master / Talk Of The Devil
Used drive  : Optiarc DVD RW AD-7543A   Adapter: 1  ID: 0
Read mode   : Secure with NO C2, accurate stream, disable cache
Read offset correction : 48
Overread into Lead-In and Lead-Out : No
Used output format : Internal WAV Routines
                     44.100 Hz; 16 Bit; Stereo
Other options      :
    Fill up missing offset samples with silence : Yes
    Delete leading and trailing silent blocks : No
    Native Win32 interface for Win NT & 2000
Range status and errors
Selected range
     Filename D:\MasterXX_FULL\03-Talk of the Devil\Edition2002\Master - Talk Of The Devil.wav
     Peak level 99.9 %
     Range quality 99.9 %
     CRC CA7350C5
     Copy OK
No errors occured
End of status report

Индексная карта (non-compilant .cue)

REM GENRE "Thrash Metal"
REM DATE 1991
REM DISCID 8308FB0B
REM COMMENT "ExactAudioCopy v0.95b4"
PERFORMER "Master"
TITLE "Talk Of The Devil"
FILE "Master - Talk Of The Devil.ape" WAVE
  TRACK 01 AUDIO
    TITLE "Intro Golgotha"
    PERFORMER "Master"
    INDEX 01 00:00:00
  TRACK 02 AUDIO
    TITLE "Talk Of The Devil"
    PERFORMER "Master"
    INDEX 01 02:08:00
  TRACK 03 AUDIO
    TITLE "Danger"
    PERFORMER "Master"
    INDEX 00 06:28:22
    INDEX 01 06:30:22
  TRACK 04 AUDIO
    TITLE "Fallen Angel"
    PERFORMER "Master"
    INDEX 00 10:31:61
    INDEX 01 10:33:61
  TRACK 05 AUDIO
    TITLE "Live To Die"
    PERFORMER "Master"
    INDEX 00 15:10:42
    INDEX 01 15:12:42
  TRACK 06 AUDIO
    TITLE "Tsar"
    PERFORMER "Master"
    INDEX 00 19:08:07
    INDEX 01 19:10:08
  TRACK 07 AUDIO
    TITLE "Heroes"
    PERFORMER "Master"
    INDEX 00 22:48:60
    INDEX 01 22:50:61
  TRACK 08 AUDIO
    TITLE "Romance (bass solo)"
    PERFORMER "Master"
    INDEX 00 26:54:00
    INDEX 01 26:56:01
  TRACK 09 AUDIO
    TITLE "I Hate Your Sex"
    PERFORMER "Master"
    INDEX 00 28:22:15
    INDEX 01 28:24:15
  TRACK 10 AUDIO
    TITLE "Paranoid"
    PERFORMER "Master"
    INDEX 00 30:44:54
    INDEX 01 30:46:54
  TRACK 11 AUDIO
    TITLE "Lock Them In The Graves (live)"
    PERFORMER "Master"
    INDEX 00 33:24:01
    INDEX 01 33:26:02

1991 - Мастер - Talk Of The Devil (2007, CD-MAXIMUM, RU, CDM 0207-2682)

Лог создания рипа

EAC extraction logfile from 21. May 2007, 1:06 for CD
Master / Talk of the Devil
Used drive  : PIONEER DVD-RW  DVR-K12D   Adapter: 1  ID: 0
Read mode   : Secure with NO C2, accurate stream, disable cache
Read offset correction : 48
Overread into Lead-In and Lead-Out : No
Used output format : Internal WAV Routines
                     44.100 Hz; 16 Bit; Stereo
Other options      :
    Fill up missing offset samples with silence : Yes
    Delete leading and trailing silent blocks : No
    Native Win32 interface for Win NT & 2000
Range status and errors
Selected range
     Filename G:\Мастер XX лет\Master - Talk of the Devil.wav
     Peak level 100.0 %
     Range quality 100.0 %
     CRC 21C3CF56
     Copy OK
No errors occured
End of status report

Индексная карта (non-compilant .cue)

REM DISCID 7E07E90A
REM COMMENT "ExactAudioCopy v0.95b4"
PERFORMER "Master"
TITLE "Talk of the Devil"
FILE "Master - Talk of the Devil.ape" WAVE
  TRACK 01 AUDIO
    TITLE "Intro Golgotha"
    PERFORMER "Master"
    FLAGS DCP
    INDEX 01 00:00:00
  TRACK 02 AUDIO
    TITLE "Talk of the Devil"
    PERFORMER "Master"
    FLAGS DCP
    INDEX 01 02:07:47
  TRACK 03 AUDIO
    TITLE "Danger"
    PERFORMER "Master"
    FLAGS DCP
    INDEX 01 06:30:18
  TRACK 04 AUDIO
    TITLE "Fallen Angel"
    PERFORMER "Master"
    FLAGS DCP
    INDEX 01 10:38:01
  TRACK 05 AUDIO
    TITLE "Live to Die"
    PERFORMER "Master"
    FLAGS DCP
    INDEX 01 15:19:69
  TRACK 06 AUDIO
    TITLE "Tsar"
    PERFORMER "Master"
    FLAGS DCP
    INDEX 01 19:21:71
  TRACK 07 AUDIO
    TITLE "Heroes"
    PERFORMER "Master"
    FLAGS DCP
    INDEX 01 23:05:74
  TRACK 08 AUDIO
    TITLE "Romance (bass solo)"
    PERFORMER "Master"
    FLAGS DCP
    INDEX 01 27:12:30
  TRACK 09 AUDIO
    TITLE "I Hate Your Sex"
    PERFORMER "Master"
    FLAGS DCP
    INDEX 01 28:44:34
  TRACK 10 AUDIO
    TITLE "Paranoid"
    PERFORMER "Master"
    FLAGS DCP
    INDEX 01 31:08:25

1994 - Мастер - Maniac Party (1994, Apex, RU, AXCD-2-0035)

Лог создания рипа

EAC extraction logfile from 15. February 2008, 19:04 for CD
Master / Maniac party
Used drive  : Optiarc DVD RW AD-7543A   Adapter: 1  ID: 0
Read mode   : Secure with NO C2, accurate stream, disable cache
Read offset correction : 48
Overread into Lead-In and Lead-Out : No
Used output format : Internal WAV Routines
                     44.100 Hz; 16 Bit; Stereo
Other options      :
    Fill up missing offset samples with silence : Yes
    Delete leading and trailing silent blocks : No
    Native Win32 interface for Win NT & 2000
Range status and errors
Selected range
     Filename D:\MasterXX_FULL\04-Maniac party\Edition1994\Master - Maniac party.wav
     Peak level 99.6 %
     Range quality 100.0 %
     CRC 372F506F
     Copy OK
No errors occured
End of status report

Индексная карта (non-compilant .cue)

REM GENRE Metal
REM DATE 1994
REM DISCID 7308CA09
REM COMMENT "ExactAudioCopy v0.95b4"
PERFORMER "Master"
TITLE "Maniac party"
FILE "Master - Maniac party.ape" WAVE
  TRACK 01 AUDIO
    TITLE "Beastie generation"
    PERFORMER "Master"
    INDEX 00 00:00:00
    INDEX 01 00:00:13
  TRACK 02 AUDIO
    TITLE "Maniac party"
    PERFORMER "Master"
    INDEX 00 07:34:58
    INDEX 01 07:34:63
  TRACK 03 AUDIO
    TITLE "Lock them in graves"
    PERFORMER "Master"
    INDEX 00 12:16:03
    INDEX 01 12:16:08
  TRACK 04 AUDIO
    TITLE "Burning in hell (Civil war disaster)"
    PERFORMER "Master"
    INDEX 00 18:03:45
    INDEX 01 18:03:48
  TRACK 05 AUDIO
    TITLE "Screams of pain"
    PERFORMER "Master"
    INDEX 00 21:44:28
    INDEX 01 21:44:33
  TRACK 06 AUDIO
    TITLE "Time X (bass solo)"
    PERFORMER "Master"
    INDEX 00 25:31:05
    INDEX 01 25:31:10
  TRACK 07 AUDIO
    TITLE "They are just like us"
    PERFORMER "Master"
    INDEX 00 26:56:33
    INDEX 01 26:56:38
  TRACK 08 AUDIO
    TITLE "Punk guys"
    PERFORMER "Master"
    INDEX 00 32:40:23
    INDEX 01 32:40:28
  TRACK 09 AUDIO
    TITLE "Go"
    PERFORMER "Master"
    INDEX 00 35:50:38
    INDEX 01 35:50:40

1994 - Мастер - Maniac Party (2002, Moroz Records, RU, MR 02445 CD)

Лог создания рипа

EAC extraction logfile from 15. February 2008, 21:03 for CD
Master / Maniac Party
Used drive  : Optiarc DVD RW AD-7543A   Adapter: 1  ID: 0
Read mode   : Secure with NO C2, accurate stream, disable cache
Read offset correction : 48
Overread into Lead-In and Lead-Out : No
Used output format : Internal WAV Routines
                     44.100 Hz; 16 Bit; Stereo
Other options      :
    Fill up missing offset samples with silence : Yes
    Delete leading and trailing silent blocks : No
    Native Win32 interface for Win NT & 2000
Range status and errors
Selected range
     Filename D:\MasterXX_FULL\04-Maniac party\Edition2002\Master - Maniac Party.wav
     Peak level 99.9 %
     Range quality 100.0 %
     CRC 6B1F92E8
     Copy OK
No errors occured
End of status report

Индексная карта (non-compilant .cue)

REM GENRE "Thrash Metal"
REM DATE 1994
REM DISCID 7309AD0A
REM COMMENT "ExactAudioCopy v0.95b4"
PERFORMER "Master"
TITLE "Maniac Party"
FILE "Master - Maniac Party.ape" WAVE
  TRACK 01 AUDIO
    TITLE "Beastie Generation"
    PERFORMER "Master"
    INDEX 01 00:00:00
  TRACK 02 AUDIO
    TITLE "Maniac Party"
    PERFORMER "Master"
    INDEX 00 07:27:35
    INDEX 01 07:29:35
  TRACK 03 AUDIO
    TITLE "Lock Them In Graves"
    PERFORMER "Master"
    INDEX 00 12:04:22
    INDEX 01 12:06:22
  TRACK 04 AUDIO
    TITLE "Burning In Hell (Civil Var Disaster)"
    PERFORMER "Master"
    INDEX 00 17:50:17
    INDEX 01 17:52:18
  TRACK 05 AUDIO
    TITLE "Screams Of Pain"
    PERFORMER "Master"
    INDEX 00 21:29:67
    INDEX 01 21:31:68
  TRACK 06 AUDIO
    TITLE "Time X (bass solo)"
    PERFORMER "Master"
    INDEX 00 25:16:34
    INDEX 01 25:18:34
  TRACK 07 AUDIO
    TITLE "They Are Just Like Us"
    PERFORMER "Master"
    INDEX 00 26:39:30
    INDEX 01 26:41:30
  TRACK 08 AUDIO
    TITLE "Punk Guys"
    PERFORMER "Master"
    INDEX 00 32:20:66
    INDEX 01 32:22:67
  TRACK 09 AUDIO
    TITLE "Go"
    PERFORMER "Master"
    INDEX 00 35:32:44
    INDEX 01 35:32:45
  TRACK 10 AUDIO
    TITLE "Danger (Live) bonus"
    PERFORMER "Master"
    INDEX 00 37:12:22
    INDEX 01 37:14:22

1994 - Мастер - Maniac Party (2007, CD-MAXIMUM, RU, CDM 0207-2683)

Лог создания рипа

EAC extraction logfile from 20. May 2007, 23:22 for CD
Master / Maniac party
Used drive  : PIONEER DVD-RW  DVR-K12D   Adapter: 1  ID: 0
Read mode   : Secure with NO C2, accurate stream, disable cache
Read offset correction : 48
Overread into Lead-In and Lead-Out : No
Used output format : Internal WAV Routines
                     44.100 Hz; 16 Bit; Stereo
Other options      :
    Fill up missing offset samples with silence : Yes
    Delete leading and trailing silent blocks : No
    Native Win32 interface for Win NT & 2000
Range status and errors
Selected range
     Filename G:\Мастер XX лет\Master - Maniac party.wav
     Peak level 99.4 %
     Range quality 100.0 %
     CRC 271A712B
     Copy OK
No errors occured
End of status report

Индексная карта (non-compilant .cue)

REM GENRE Metal
REM DATE 1994
REM DISCID 8008D709
REM COMMENT "ExactAudioCopy v0.95b4"
PERFORMER "Master"
TITLE "Maniac party"
FILE "Master - Maniac party.ape" WAVE
  TRACK 01 AUDIO
    TITLE "Beastie generation"
    PERFORMER "Master"
    FLAGS DCP
    INDEX 01 00:00:00
  TRACK 02 AUDIO
    TITLE "Maniac party"
    PERFORMER "Master"
    FLAGS DCP
    INDEX 00 07:32:38
    INDEX 01 07:34:38
  TRACK 03 AUDIO
    TITLE "Lock them in graves"
    PERFORMER "Master"
    FLAGS DCP
    INDEX 00 12:15:58
    INDEX 01 12:17:58
  TRACK 04 AUDIO
    TITLE "Burning in hell (Civil war disaster)"
    PERFORMER "Master"
    FLAGS DCP
    INDEX 00 18:05:23
    INDEX 01 18:07:23
  TRACK 05 AUDIO
    TITLE "Screams of pain"
    PERFORMER "Master"
    FLAGS DCP
    INDEX 00 21:47:74
    INDEX 01 21:49:74
  TRACK 06 AUDIO
    TITLE "Time X (bass solo)"
    PERFORMER "Master"
    FLAGS DCP
    INDEX 00 25:35:65
    INDEX 01 25:37:65
  TRACK 07 AUDIO
    TITLE "They are just like us"
    PERFORMER "Master"
    FLAGS DCP
    INDEX 00 27:03:18
    INDEX 01 27:05:18
  TRACK 08 AUDIO
    TITLE "Punk guys"
    PERFORMER "Master"
    FLAGS DCP
    INDEX 00 32:49:08
    INDEX 01 32:51:08
  TRACK 09 AUDIO
    TITLE "Go"
    PERFORMER "Master"
    FLAGS DCP
    INDEX 00 36:01:20
    INDEX 01 36:03:20

1995 - Мастер - Live

Лог создания рипа

EAC extraction logfile from 21. May 2007, 0:26 for CD
Master / Live
Used drive  : PIONEER DVD-RW  DVR-K12D   Adapter: 1  ID: 0
Read mode   : Secure with NO C2, accurate stream, disable cache
Read offset correction : 48
Overread into Lead-In and Lead-Out : No
Used output format : Internal WAV Routines
                     44.100 Hz; 16 Bit; Stereo
Other options      :
    Fill up missing offset samples with silence : Yes
    Delete leading and trailing silent blocks : No
    Native Win32 interface for Win NT & 2000
Range status and errors
Selected range
     Filename G:\Мастер XX лет\Master - Live.wav
     Peak level 98.0 %
     Range quality 100.0 %
     CRC FA209D9B
     Copy OK
No errors occured
End of status report

Индексная карта (non-compilant .cue)

REM DISCID A30E110D
REM COMMENT "ExactAudioCopy v0.95b4"
PERFORMER "Master"
TITLE "Live"
FILE "Master - Live.ape" WAVE
  TRACK 01 AUDIO
    TITLE "Intro"
    PERFORMER "Master"
    INDEX 01 00:00:00
  TRACK 02 AUDIO
    TITLE "Beastie Generation"
    PERFORMER "Master"
    INDEX 01 00:25:12
  TRACK 03 AUDIO
    TITLE "Tsar"
    PERFORMER "Master"
    INDEX 01 05:16:60
  TRACK 04 AUDIO
    TITLE "Danger"
    PERFORMER "Master"
    INDEX 01 09:05:55
  TRACK 05 AUDIO
    TITLE "Live To Die"
    PERFORMER "Master"
    INDEX 01 13:09:30
  TRACK 06 AUDIO
    TITLE "Lock Them In Graves"
    PERFORMER "Master"
    INDEX 01 17:00:67
  TRACK 07 AUDIO
    TITLE "Screams Of Pain"
    PERFORMER "Master"
    INDEX 01 22:10:22
  TRACK 08 AUDIO
    TITLE "Punk Guys"
    PERFORMER "Master"
    INDEX 01 25:51:05
  TRACK 09 AUDIO
    TITLE "Palachi"
    PERFORMER "Master"
    INDEX 01 28:25:30
  TRACK 10 AUDIO
    TITLE "Master"
    PERFORMER "Master"
    INDEX 01 32:44:02
  TRACK 11 AUDIO
    TITLE "Volya I Razum"
    PERFORMER "Master"
    INDEX 01 37:24:37
  TRACK 12 AUDIO
    TITLE "Smoke On The Water"
    PERFORMER "Master"
    INDEX 01 48:08:02
  TRACK 13 AUDIO
    TITLE "Zdes' Kuyut Metall"
    PERFORMER "Master"
    INDEX 01 53:22:62

1996 - Мастер - Песни мертвых (1996, FLAM Rcords, Sweden, FLAM 003-96)

Лог создания рипа

Отчёт EAC об извлечении, выполненном 4. марта 2007, 16:55 для диска:
Master / Песни Мёртвых
Дисковод: _NEC    DVD_RW ND-3540A   Adapter: 1  ID: 0
Режим чтения: Достоверный (C2: нет, Точный поток: да, Отключение кэша: да)
Коррекция смещения при чтении: 48
Способность читать области Lead-in и Lead-out : Нет
Выходной формат: Внутренние WAV-операции
                     44.100 Гц; 16 бит; стерео
Другие параметры:
    Заполнение пропущенных сэмплов тишиной : Да
    Удаление блоков с тишиной в начале и конце : Нет
    Установленный внешний ASPI-интерфейс
Характеристики диапазона извлечения и сообщения об ошибках
Выбранный диапазон
     Имя файла E:\1\Master - Песни Мёртвых.wav
     Пиковый уровень 94.4 %
     Качество диапазона 99.9 %
     CRC 25959AB3
     Копирование... OK
Ошибок не произошло
Конец отчёта

Индексная карта (non-compilant .cue)

REM GENRE "Thrash Metal"
REM DATE 1996
REM DISCID 8B09BC0A
REM COMMENT "ExactAudioCopy v0.95b4"
PERFORMER "Master"
TITLE "Песни Мёртвых"
FILE "Master - Песни Мёртвых.ape" WAVE
  TRACK 01 AUDIO
    TITLE "Интра/Песни Мёртвых"
    PERFORMER "Master"
    INDEX 01 00:00:00
  TRACK 02 AUDIO
    TITLE "Дикие Гуси"
    PERFORMER "Master"
    INDEX 00 05:54:25
    INDEX 01 05:56:30
  TRACK 03 AUDIO
    TITLE "Дайте свет"
    PERFORMER "Master"
    INDEX 00 10:21:70
    INDEX 01 10:24:27
  TRACK 04 AUDIO
    TITLE "Пепел на ветру"
    PERFORMER "Master"
    INDEX 00 14:35:20
    INDEX 01 14:37:22
  TRACK 05 AUDIO
    TITLE "Надоело"
    PERFORMER "Master"
    INDEX 00 19:15:35
    INDEX 01 19:17:22
  TRACK 06 AUDIO
    TITLE "Только ты сам"
    PERFORMER "Master"
    INDEX 00 22:12:18
    INDEX 01 22:14:15
  TRACK 07 AUDIO
    TITLE "Я не хочу войны"
    PERFORMER "Master"
    INDEX 00 25:36:43
    INDEX 01 25:38:62
  TRACK 08 AUDIO
    TITLE "Тату"
    PERFORMER "Master"
    INDEX 00 29:05:73
    INDEX 01 29:08:10
  TRACK 09 AUDIO
    TITLE "Ночь"
    PERFORMER "Master"
    INDEX 00 32:29:60
    INDEX 01 32:32:20
  TRACK 10 AUDIO
    TITLE "Корабль дураков"
    PERFORMER "Master"
    INDEX 00 37:28:68
    INDEX 01 37:31:17


Последний раз редактировалось: sergej644 (2017-08-07 09:13), всего редактировалось 1 раз
[Профиль] [ЛС]

sergej644 ®

Пол:

Стаж: 5 лет 11 месяцев

Сообщений: 6169

Откуда: Soviet Union



Награды: 9 (Подробнее)

Mega Seeder 2 (Количество: 1) Top Seeder 3 (Количество: 1) Top Seeder 4 (Количество: 1)
Торрент-статистика

Создавать темы 07-Авг-2017 09:13 (спустя 8 минут)

[Цитировать]

1996 - Мастер - Песни мертвых (2002, Moroz Recods, RU, MR 02446 CD)

Лог создания рипа

EAC extraction logfile from 15. February 2008, 23:17 for CD
Мастре / Песни Мертвых
Used drive  : Optiarc DVD RW AD-7543A   Adapter: 1  ID: 0
Read mode   : Secure with NO C2, accurate stream, disable cache
Read offset correction : 48
Overread into Lead-In and Lead-Out : No
Used output format : Internal WAV Routines
                     44.100 Hz; 16 Bit; Stereo
Other options      :
    Fill up missing offset samples with silence : Yes
    Delete leading and trailing silent blocks : No
    Native Win32 interface for Win NT & 2000
Range status and errors
Selected range
     Filename D:\MasterXX_FULL\05-Pesni Mertvyx\Edition2002\Мастре - Песни Мертвых.wav
     Peak level 99.9 %
     Range quality 100.0 %
     CRC 383FFBAA
     Copy OK
No errors occured
End of status report

Индексная карта (non-compilant .cue)

REM GENRE Metal
REM DATE 1996
REM DISCID A20A4F0B
REM COMMENT "ExactAudioCopy v0.95b4"
PERFORMER "Мастре"
TITLE "Песни Мертвых"
FILE "Мастре - Песни Мертвых.ape" WAVE
  TRACK 01 AUDIO
    TITLE "Песни Мертвых"
    PERFORMER "Мастре"
    INDEX 01 00:00:00
  TRACK 02 AUDIO
    TITLE "Дикие Гуси"
    PERFORMER "Мастре"
    INDEX 00 05:54:47
    INDEX 01 05:56:47
  TRACK 03 AUDIO
    TITLE "Дайте Свет"
    PERFORMER "Мастре"
    INDEX 00 10:22:13
    INDEX 01 10:24:14
  TRACK 04 AUDIO
    TITLE "Пепел На Втеру"
    PERFORMER "Мастре"
    INDEX 00 14:35:10
    INDEX 01 14:37:11
  TRACK 05 AUDIO
    TITLE "Надоело"
    PERFORMER "Мастре"
    INDEX 00 19:15:17
    INDEX 01 19:17:17
  TRACK 06 AUDIO
    TITLE "Только Ты Сам"
    PERFORMER "Мастре"
    INDEX 00 22:12:16
    INDEX 01 22:14:17
  TRACK 07 AUDIO
    TITLE "Я Не Хочу Войны"
    PERFORMER "Мастре"
    INDEX 00 25:36:34
    INDEX 01 25:38:34
  TRACK 08 AUDIO
    TITLE "Тату"
    PERFORMER "Мастре"
    INDEX 00 29:05:34
    INDEX 01 29:07:34
  TRACK 09 AUDIO
    TITLE "Ночь"
    PERFORMER "Мастре"
    INDEX 00 32:28:70
    INDEX 01 32:30:71
  TRACK 10 AUDIO
    TITLE "Корабль Дураков"
    PERFORMER "Мастре"
    INDEX 00 37:27:41
    INDEX 01 37:29:41
  TRACK 11 AUDIO
    TITLE "Punk Guys (live)"
    PERFORMER "Мастре"
    INDEX 00 41:30:27
    INDEX 01 41:32:27

1996 - Мастер - Песни мертвых (2007, CD-MAXIMUM, RU, CDM 0207-2685)

Лог создания рипа

EAC extraction logfile from 20. May 2007, 23:39 for CD
Master / Pesni mertvih
Used drive  : PIONEER DVD-RW  DVR-K12D   Adapter: 1  ID: 0
Read mode   : Secure with NO C2, accurate stream, disable cache
Read offset correction : 48
Overread into Lead-In and Lead-Out : No
Used output format : Internal WAV Routines
                     44.100 Hz; 16 Bit; Stereo
Other options      :
    Fill up missing offset samples with silence : Yes
    Delete leading and trailing silent blocks : No
    Native Win32 interface for Win NT & 2000
Range status and errors
Selected range
     Filename G:\Мастер XX лет\Master - Pesni mertvih.wav
     Peak level 100.0 %
     Range quality 100.0 %
     CRC 91210079
     Copy OK
No errors occured
End of status report

Индексная карта (non-compilant .cue)

REM DISCID 8909CB0A
REM COMMENT "ExactAudioCopy v0.95b4"
PERFORMER "Master"
TITLE "Pesni mertvih"
FILE "Master - Pesni mertvih.ape" WAVE
  TRACK 01 AUDIO
    TITLE "Intra / Pesni mertvih"
    PERFORMER "Master"
    FLAGS DCP
    INDEX 01 00:00:00
  TRACK 02 AUDIO
    TITLE "Dikie gusi"
    PERFORMER "Master"
    FLAGS DCP
    INDEX 00 05:56:43
    INDEX 01 05:58:43
  TRACK 03 AUDIO
    TITLE "Dayte svet"
    PERFORMER "Master"
    FLAGS DCP
    INDEX 00 10:26:36
    INDEX 01 10:28:36
  TRACK 04 AUDIO
    TITLE "Pepel na vetru"
    PERFORMER "Master"
    FLAGS DCP
    INDEX 00 14:40:27
    INDEX 01 14:42:27
  TRACK 05 AUDIO
    TITLE "Nadoelo"
    PERFORMER "Master"
    FLAGS DCP
    INDEX 00 19:22:27
    INDEX 01 19:24:27
  TRACK 06 AUDIO
    TITLE "Tolko ti sam"
    PERFORMER "Master"
    FLAGS DCP
    INDEX 00 22:21:24
    INDEX 01 22:23:24
  TRACK 07 AUDIO
    TITLE "Ya ne hochu voini"
    PERFORMER "Master"
    FLAGS DCP
    INDEX 00 25:47:21
    INDEX 01 25:49:21
  TRACK 08 AUDIO
    TITLE "Tatu"
    PERFORMER "Master"
    FLAGS DCP
    INDEX 00 29:18:33
    INDEX 01 29:20:33
  TRACK 09 AUDIO
    TITLE "Noch"
    PERFORMER "Master"
    FLAGS DCP
    INDEX 00 32:44:02
    INDEX 01 32:46:02
  TRACK 10 AUDIO
    TITLE "Korabl` durakov"
    PERFORMER "Master"
    FLAGS DCP
    INDEX 00 37:44:56
    INDEX 01 37:46:56

1997 - Мастер - The Best. Концерт В Москве 1997

Лог создания рипа

EAC extraction logfile from 21. May 2007, 0:52 for CD
Мастер / The Best. Концерт В Москве 1997
Used drive  : PIONEER DVD-RW  DVR-K12D   Adapter: 1  ID: 0
Read mode   : Secure with NO C2, accurate stream, disable cache
Read offset correction : 48
Overread into Lead-In and Lead-Out : No
Used output format : Internal WAV Routines
                     44.100 Hz; 16 Bit; Stereo
Other options      :
    Fill up missing offset samples with silence : Yes
    Delete leading and trailing silent blocks : No
    Native Win32 interface for Win NT & 2000
Range status and errors
Selected range
     Filename G:\Мастер XX лет\Мастер - The Best. Концерт В Москве 1997.wav
     Peak level 99.9 %
     Range quality 99.9 %
     CRC DC7C9A1C
     Copy OK
No errors occured
End of status report

Индексная карта (non-compilant .cue)

REM GENRE "Thrash Metal"
REM DATE 1997
REM DISCID CE114F0E
REM COMMENT "ExactAudioCopy v0.95b4"
PERFORMER "Мастер"
TITLE "The Best. Концерт В Москве 1997"
FILE "Мастер - The Best. Концерт В Москве 1997.ape" WAVE
  TRACK 01 AUDIO
    TITLE "Песни Мертвых"
    PERFORMER "Мастер"
    INDEX 01 00:00:00
  TRACK 02 AUDIO
    TITLE "Корабль Дураков"
    PERFORMER "Мастер"
    INDEX 01 05:07:10
  TRACK 03 AUDIO
    TITLE "Надоело"
    PERFORMER "Мастер"
    INDEX 01 09:14:47
  TRACK 04 AUDIO
    TITLE "Я Не Хочу Войны"
    PERFORMER "Мастер"
    INDEX 01 11:58:47
  TRACK 05 AUDIO
    TITLE "Пепел На Ветру"
    PERFORMER "Мастер"
    INDEX 01 15:51:70
  TRACK 06 AUDIO
    TITLE "Tatoo"
    PERFORMER "Мастер"
    INDEX 01 20:43:45
  TRACK 07 AUDIO
    TITLE "Danger"
    PERFORMER "Мастер"
    INDEX 01 24:14:00
  TRACK 08 AUDIO
    TITLE "Lock Them In Gravse"
    PERFORMER "Мастер"
    INDEX 01 30:07:37
  TRACK 09 AUDIO
    TITLE "Не Хотим"
    PERFORMER "Мастер"
    INDEX 01 34:42:22
  TRACK 10 AUDIO
    TITLE "Еще Раз Ночь"
    PERFORMER "Мастер"
    INDEX 01 38:27:15
  TRACK 11 AUDIO
    TITLE "Мастер"
    PERFORMER "Мастер"
    INDEX 01 41:33:25
  TRACK 12 AUDIO
    TITLE "Здесь Куют Металл"
    PERFORMER "Мастер"
    INDEX 01 46:39:35
  TRACK 13 AUDIO
    TITLE "Воля И Разум"
    PERFORMER "Мастер"
    INDEX 01 58:12:55
  TRACK 14 AUDIO
    TITLE "Бас Соло"
    PERFORMER "Мастер"
    INDEX 01 66:23:30

2001 - Мастер - Лабиринт (2002, Moroz Records, RU, MR 02448 CD)

Лог создания рипа

EAC extraction logfile from 15. February 2008, 21:48 for CD
<МастеР> / Лабиринт
Used drive  : Optiarc DVD RW AD-7543A   Adapter: 1  ID: 0
Read mode   : Secure with NO C2, accurate stream, disable cache
Read offset correction : 48
Overread into Lead-In and Lead-Out : No
Used output format : Internal WAV Routines
                     44.100 Hz; 16 Bit; Stereo
Other options      :
    Fill up missing offset samples with silence : Yes
    Delete leading and trailing silent blocks : No
    Native Win32 interface for Win NT & 2000
Range status and errors
Selected range
     Filename D:\MasterXX_FULL\08-Labirint\Edition2002\МастеР  - Лабиринт.wav
     Peak level 100.0 %
     Range quality 100.0 %
     CRC 80BAE8D6
     Copy OK
No errors occured
End of status report

Индексная карта (non-compilant .cue&#41;

REM GENRE Metal
REM DATE 2000
REM DISCID 770C000A
REM COMMENT "ExactAudioCopy v0.95b4"
PERFORMER "<МастеР>"
TITLE "Лабиринт"
FILE "МастеР  - Лабиринт.ape" WAVE
  TRACK 01 AUDIO
    TITLE "Места хватит всем"
    PERFORMER "<МастеР>"
    FLAGS DCP
    INDEX 01 00:00:00
  TRACK 02 AUDIO
    TITLE "Лабиринт"
    PERFORMER "<МастеР>"
    FLAGS DCP
    INDEX 00 06:49:16
    INDEX 01 06:51:16
  TRACK 03 AUDIO
    TITLE "Високосный век"
    PERFORMER "<МастеР>"
    FLAGS DCP
    INDEX 00 12:57:10
    INDEX 01 12:59:10
  TRACK 04 AUDIO
    TITLE "Кресты"
    PERFORMER "<МастеР>"
    FLAGS DCP
    INDEX 00 19:27:65
    INDEX 01 19:29:65
  TRACK 05 AUDIO
    TITLE "Сон"
    PERFORMER "<МастеР>"
    FLAGS DCP
    INDEX 00 25:05:35
    INDEX 01 25:07:35
  TRACK 06 AUDIO
    TITLE "Instrumental"
    PERFORMER "<МастеР>"
    FLAGS DCP
    INDEX 00 31:44:13
    INDEX 01 31:46:13
  TRACK 07 AUDIO
    TITLE "Металл доктор"
    PERFORMER "<МастеР>"
    FLAGS DCP
    INDEX 00 33:34:21
    INDEX 01 33:36:21
  TRACK 08 AUDIO
    TITLE "Охотники за счастьем"
    PERFORMER "<МастеР>"
    FLAGS DCP
    INDEX 00 38:46:55
    INDEX 01 38:48:55
  TRACK 09 AUDIO
    TITLE "Никто не забыт, ничто не забыто(бас соло)"
    PERFORMER "<МастеР>"
    FLAGS DCP
    INDEX 00 45:36:42
    INDEX 01 45:38:42
  TRACK 10 AUDIO
    TITLE "Руки прочь"
    PERFORMER "<МастеР>"
    FLAGS DCP
    INDEX 00 48:32:28
    INDEX 01 48:34:28

2001 - Мастер - Лабиринт (2007, CD-MAXIMUM, RU, CDM 0207-2687&#41;

Лог создания рипа

EAC extraction logfile from 20. May 2007, 23:57 for CD
<МастеР> / Лабиринт
Used drive  : PIONEER DVD-RW  DVR-K12D   Adapter: 1  ID: 0
Read mode   : Secure with NO C2, accurate stream, disable cache
Read offset correction : 48
Overread into Lead-In and Lead-Out : No
Used output format : Internal WAV Routines
                     44.100 Hz; 16 Bit; Stereo
Other options      :
    Fill up missing offset samples with silence : Yes
    Delete leading and trailing silent blocks : No
    Native Win32 interface for Win NT & 2000
Range status and errors
Selected range
     Filename G:\Мастер XX лет\МастеР  - Лабиринт.wav
     Peak level 100.0 %
     Range quality 99.9 %
     CRC 3D8AE8E3
     Copy OK
No errors occured
End of status report

Индексная карта (non-compilant .cue&#41;

REM GENRE Metal
REM DATE 2000
REM DISCID 760C0E0A
REM COMMENT "ExactAudioCopy v0.95b4"
PERFORMER "<МастеР>"
TITLE "Лабиринт"
FILE "МастеР  - Лабиринт.ape" WAVE
  TRACK 01 AUDIO
    TITLE "Места хватит всем"
    PERFORMER "<МастеР>"
    FLAGS DCP
    INDEX 01 00:00:00
  TRACK 02 AUDIO
    TITLE "Лабиринт"
    PERFORMER "<МастеР>"
    FLAGS DCP
    INDEX 00 06:49:31
    INDEX 01 06:51:31
  TRACK 03 AUDIO
    TITLE "Високосный век"
    PERFORMER "<МастеР>"
    FLAGS DCP
    INDEX 00 12:59:25
    INDEX 01 13:01:25
  TRACK 04 AUDIO
    TITLE "Кресты"
    PERFORMER "<МастеР>"
    FLAGS DCP
    INDEX 00 19:31:32
    INDEX 01 19:33:32
  TRACK 05 AUDIO
    TITLE "Сон"
    PERFORMER "<МастеР>"
    FLAGS DCP
    INDEX 00 25:10:01
    INDEX 01 25:12:01
  TRACK 06 AUDIO
    TITLE "Instrumental"
    PERFORMER "<МастеР>"
    FLAGS DCP
    INDEX 00 31:50:54
    INDEX 01 31:52:54
  TRACK 07 AUDIO
    TITLE "Металл доктор"
    PERFORMER "<МастеР>"
    FLAGS DCP
    INDEX 00 33:42:51
    INDEX 01 33:44:51
  TRACK 08 AUDIO
    TITLE "Охотники за счастьем"
    PERFORMER "<МастеР>"
    FLAGS DCP
    INDEX 00 38:57:10
    INDEX 01 38:59:10
  TRACK 09 AUDIO
    TITLE "Никто не забыт, ничто не забыто(бас соло)"
    PERFORMER "<МастеР>"
    FLAGS DCP
    INDEX 00 45:48:72
    INDEX 01 45:50:72
  TRACK 10 AUDIO
    TITLE "Руки прочь"
    PERFORMER "<МастеР>"
    FLAGS DCP
    INDEX 00 48:46:58
    INDEX 01 48:48:58

2002 - Мастер - Классика (1987 - 2002&#41; (2002, Moroz Records, RU, MR53502 CD&#41;

Лог создания рипа

Exact Audio Copy V0.99 prebeta 3 from 28. July 2007
EAC extraction logfile from 31. August 2007, 21:41
Master / Klassika
Used drive  : Optiarc DVD RW AD-7543A   Adapter: 1  ID: 0
Read mode               : Secure
Utilize accurate stream : Yes
Defeat audio cache      : Yes
Make use of C2 pointers : No
Read offset correction                      : 48
Overread into Lead-In and Lead-Out          : No
Fill up missing offset samples with silence : Yes
Delete leading and trailing silent blocks   : No
Null samples used in CRC calculations       : Yes
Used interface                              : Native Win32 interface for Win NT & 2000
Used output format : Internal WAV Routines
Sample format      : 44.100 Hz; 16 Bit; Stereo
Range status and errors
Selected range
     Filename C:\Documents and Settings\DVS\My Documents\Master - Klassika.wav
     Peak level 99.9 %
     Range quality 99.9 %
     Copy CRC 0187F940
     Copy OK
No errors occurred
End of status report

Индексная карта (non-compilant .cue&#41;

REM GENRE Metal
REM DATE 2002
REM DISCID A90AC90E
REM COMMENT "ExactAudioCopy v0.99pb3"
PERFORMER "Master"
TITLE "Klassika"
FILE "Master - Klassika.ape" WAVE
  TRACK 01 AUDIO
    TITLE "Track01"
    PERFORMER "Master"
    INDEX 01 00:00:00
  TRACK 02 AUDIO
    TITLE "Track02"
    PERFORMER "Master"
    INDEX 01 01:00:28
  TRACK 03 AUDIO
    TITLE "Track03"
    PERFORMER "Master"
    INDEX 00 04:47:18
    INDEX 01 04:49:18
  TRACK 04 AUDIO
    TITLE "Track04"
    PERFORMER "Master"
    INDEX 00 09:11:73
    INDEX 01 09:13:73
  TRACK 05 AUDIO
    TITLE "Track05"
    PERFORMER "Master"
    INDEX 00 12:13:51
    INDEX 01 12:15:52
  TRACK 06 AUDIO
    TITLE "Track06"
    PERFORMER "Master"
    INDEX 00 15:37:61
    INDEX 01 15:39:62
  TRACK 07 AUDIO
    TITLE "Track07"
    PERFORMER "Master"
    INDEX 00 20:40:60
    INDEX 01 20:42:60
  TRACK 08 AUDIO
    TITLE "Track08"
    PERFORMER "Master"
    INDEX 00 24:23:67
    INDEX 01 24:25:68
  TRACK 09 AUDIO
    TITLE "Track09"
    PERFORMER "Master"
    INDEX 00 25:56:34
    INDEX 01 25:58:34
  TRACK 10 AUDIO
    TITLE "Track10"
    PERFORMER "Master"
    INDEX 00 30:25:26
    INDEX 01 30:27:26
  TRACK 11 AUDIO
    TITLE "Track11"
    PERFORMER "Master"
    INDEX 00 33:47:16
    INDEX 01 33:49:16
  TRACK 12 AUDIO
    TITLE "Track12"
    PERFORMER "Master"
    INDEX 00 38:21:37
    INDEX 01 38:23:37
  TRACK 13 AUDIO
    TITLE "Track13"
    PERFORMER "Master"
    INDEX 00 41:36:12
    INDEX 01 41:38:13
  TRACK 14 AUDIO
    TITLE "Track14"
    PERFORMER "Master"
    INDEX 00 45:50:68
    INDEX 01 45:51:09

2002 - Мастер - Легенды русского рока (Moroz Records, RU, MR 02490 CD&#41;

Лог создания рипа

Exact Audio Copy V0.99 prebeta 3 from 28. July 2007
Отчёт EAC об извлечении, выполненном 10. февраля 2008, 20:55
Мастер / Легенды русского рока
Дисковод: Optiarc DVD RW AD-7170S   Adapter: 1  ID: 0
Режим чтения                 : Достоверность
Использование точного потока : Да
Отключение кэша аудио        : Да
Использование указателей C2  : Нет
Коррекция смещения при чтении                     : 48
Способность читать области Lead-in и Lead-out     : Нет
Заполнение пропущенных сэмплов тишиной            : Да
Удаление блоков с тишиной в начале и конце        : Нет
При вычислениях CRC использовались нулевые сэмплы : Да
Интерфейс                                         : Установленный внешний ASPI-интерфейс
Выходной формат     : Внутренние WAV-операции
Формат сэмплов      : 44.100 Гц; 16 бит; стерео
Смещение при сжатии : 48
TOC извлечённого CD
     Трек |   Старт  | Длительность | Начальный сектор | Конечный сектор
    ---------------------------------------------------------------------
       1  |  0:00.00 |    3:59.43   |           0      |      17967
       2  |  3:59.43 |    5:13.20   |       17968      |      41462
       3  |  9:12.63 |    2:48.39   |       41463      |      54101
       4  | 12:01.27 |    4:52.67   |       54102      |      76068
       5  | 16:54.19 |    4:03.34   |       76069      |      94327
       6  | 20:57.53 |    4:19.42   |       94328      |     113794
       7  | 25:17.20 |    3:30.35   |      113795      |     129579
       8  | 28:47.55 |    3:04.49   |      129580      |     143428
       9  | 31:52.29 |    4:04.48   |      143429      |     161776
      10  | 35:57.02 |    5:40.61   |      161777      |     187337
      11  | 41:37.63 |    4:39.62   |      187338      |     208324
      12  | 46:17.50 |    2:57.07   |      208325      |     221606
      13  | 49:14.57 |    7:25.29   |      221607      |     255010
      14  | 56:40.11 |    5:02.24   |      255011      |     277684
      15  | 61:42.35 |    2:38.70   |      277685      |     289604
      16  | 64:21.30 |    5:34.19   |      289605      |     314673
      17  | 69:55.49 |    6:44.45   |      314674      |     345018
Характеристики диапазона извлечения и сообщения об ошибках
Выбранный диапазон
     Имя файла H:\Мастер - Легенды русского рока.wav
     Пиковый уровень 100.0 %
     Качество диапазона 99.9 %
     CRC копии E817518E
     Копирование... OK
Ошибок не произошло
AccurateRip: сводка
Трек  1  точность не определена (достоверность 1)  [0F9597DE], AccurateRip вернул [97826F51]
Трек  2  точность не определена (достоверность 1)  [4F67C35B], AccurateRip вернул [F19F7638]
Трек  3  точность не определена (достоверность 1)  [9B846A63], AccurateRip вернул [2DA31C0F]
Трек  4  точность не определена (достоверность 1)  [AEC22B9B], AccurateRip вернул [A3D33382]
Трек  5  точность не определена (достоверность 1)  [3678657E], AccurateRip вернул [CBAD6A52]
Трек  6  точность не определена (достоверность 1)  [FC8ADF1E], AccurateRip вернул [DD7A237B]
Трек  7  точность не определена (достоверность 1)  [DFED5B83], AccurateRip вернул [6CC8B200]
Трек  8  точность не определена (достоверность 1)  [723EB383], AccurateRip вернул [E8F94924]
Трек  9  точность не определена (достоверность 1)  [254C71C7], AccurateRip вернул [373BB7C9]
Трек 10  точность не определена (достоверность 1)  [2951138C], AccurateRip вернул [50FF16A2]
Трек 11  точность не определена (достоверность 1)  [F1D0AA0E], AccurateRip вернул [0F522347]
Трек 12  точность не определена (достоверность 1)  [49910C13], AccurateRip вернул [9FC00135]
Трек 13  точность не определена (достоверность 1)  [8B44189B], AccurateRip вернул [4DF1848D]
Трек 14  точность не определена (достоверность 1)  [308F2565], AccurateRip вернул [142801BD]
Трек 15  точность не определена (достоверность 1)  [3DF80F4F], AccurateRip вернул [4FADC852]
Трек 16  точность не определена (достоверность 1)  [E8BC8642], AccurateRip вернул [E418EB8D]
Трек 17  точность не определена (достоверность 1)  [61D45D83], AccurateRip вернул [9CF69A12]
Ни один трек не прошёл проверки на точность
В вашей базе может быть иной вариант штамповки диска
Конец отчёта

Индексная карта (non-compilant .cue&#41;

REM GENRE "Thrash Metal"
REM DATE 2002
REM DISCID 0711F811
REM COMMENT "ExactAudioCopy v0.99pb3"
PERFORMER "Мастер"
TITLE "Легенды русского рока"
FILE "Мастер - Легенды русского рока.ape" WAVE
  TRACK 01 AUDIO
    TITLE "Берегись"
    PERFORMER "Мастер"
    INDEX 01 00:00:00
  TRACK 02 AUDIO
    TITLE "Руки прочь"
    PERFORMER "Мастер"
    INDEX 01 03:59:43
  TRACK 03 AUDIO
    TITLE "Кто кого"
    PERFORMER "Мастер"
    INDEX 01 09:12:63
  TRACK 04 AUDIO
    TITLE "Щит и меч"
    PERFORMER "Мастер"
    INDEX 01 12:01:27
  TRACK 05 AUDIO
    TITLE "Мастер"
    PERFORMER "Мастер"
    INDEX 01 16:54:19
  TRACK 06 AUDIO
    TITLE "Палачи"
    PERFORMER "Мастер"
    INDEX 01 20:57:53
  TRACK 07 AUDIO
    TITLE "Наплевать"
    PERFORMER "Мастер"
    INDEX 01 25:17:20
  TRACK 08 AUDIO
    TITLE "Мы не рабы"
    PERFORMER "Мастер"
    INDEX 00 28:47:53
    INDEX 01 28:47:55
  TRACK 09 AUDIO
    TITLE "Heroes"
    PERFORMER "Мастер"
    INDEX 01 31:52:29
  TRACK 10 AUDIO
    TITLE "They are just kike us"
    PERFORMER "Мастер"
    INDEX 00 35:57:01
    INDEX 01 35:57:02
  TRACK 11 AUDIO
    TITLE "Пепел на ветру"
    PERFORMER "Мастер"
    INDEX 01 41:37:63
  TRACK 12 AUDIO
    TITLE "Надоело"
    PERFORMER "Мастер"
    INDEX 01 46:17:50
  TRACK 13 AUDIO
    TITLE "Бас соло"
    PERFORMER "Мастер"
    INDEX 01 49:14:57
  TRACK 14 AUDIO
    TITLE "Здесь куют металл"
    PERFORMER "Мастер"
    INDEX 01 56:40:11
  TRACK 15 AUDIO
    TITLE "Таран"
    PERFORMER "Мастер"
    INDEX 01 61:42:35
  TRACK 16 AUDIO
    TITLE "Кресты"
    PERFORMER "Мастер"
    INDEX 01 64:21:30
  TRACK 17 AUDIO
    TITLE "Места хватит всем"
    PERFORMER "Мастер"
    INDEX 01 69:55:49

2004 - Мастер - 33 жизни (2006, CD-MAXIMUM, RU, CDM0506-2519&#41;

Лог создания рипа

EAC extraction logfile from 21. May 2007, 1:39 for CD
Мастер / 33 жизни
Used drive  : PIONEER DVD-RW  DVR-K12D   Adapter: 1  ID: 0
Read mode   : Secure with NO C2, accurate stream, disable cache
Read offset correction : 48
Overread into Lead-In and Lead-Out : No
Used output format : Internal WAV Routines
                     44.100 Hz; 16 Bit; Stereo
Other options      :
    Fill up missing offset samples with silence : Yes
    Delete leading and trailing silent blocks : No
    Native Win32 interface for Win NT & 2000
Range status and errors
Selected range
     Filename G:\Мастер XX лет\Мастер - 33 жизни.wav
     Peak level 100.0 %
     Range quality 100.0 %
     CRC 652828D1
     Copy OK
No errors occured
End of status report

Индексная карта (non-compilant .cue&#41;

REM DISCID C70D5910
REM COMMENT "ExactAudioCopy v0.95b4"
PERFORMER "Мастер"
TITLE "33 жизни"
FILE "Мастер - 33 жизни.ape" WAVE
  TRACK 01 AUDIO
    TITLE "Игра"
    PERFORMER "Мастер"
    FLAGS DCP
    INDEX 01 00:00:00
  TRACK 02 AUDIO
    TITLE "Мастер Скорбных Дел"
    PERFORMER "Мастер"
    FLAGS DCP
    INDEX 01 03:49:66
  TRACK 03 AUDIO
    TITLE "Вера Горит на Кострах"
    PERFORMER "Мастер"
    FLAGS DCP
    INDEX 01 07:48:69
  TRACK 04 AUDIO
    TITLE "33 Жизни"
    PERFORMER "Мастер"
    FLAGS DCP
    INDEX 01 12:52:06
  TRACK 05 AUDIO
    TITLE "Экспресс"
    PERFORMER "Мастер"
    FLAGS DCP
    INDEX 01 16:46:67
  TRACK 06 AUDIO
    TITLE "Глоток Огня"
    PERFORMER "Мастер"
    FLAGS DCP
    INDEX 01 20:52:46
  TRACK 07 AUDIO
    TITLE "Война Миров (соло для бас-гитары с группой)"
    PERFORMER "Мастер"
    FLAGS DCP
    INDEX 01 24:00:58
  TRACK 08 AUDIO
    TITLE "Heavy Lambada"
    PERFORMER "Мастер"
    FLAGS DCP
    INDEX 01 25:36:53
  TRACK 09 AUDIO
    TITLE "Снежный Охотник"
    PERFORMER "Мастер"
    FLAGS DCP
    INDEX 01 28:56:30
  TRACK 10 AUDIO
    TITLE "Drum-Parad"
    PERFORMER "Мастер"
    FLAGS DCP
    INDEX 01 32:33:29
  TRACK 11 AUDIO
    TITLE "Стихия"
    PERFORMER "Мастер"
    FLAGS DCP
    INDEX 01 34:28:15
  TRACK 12 AUDIO
    TITLE "С Уважением"
    PERFORMER "Мастер"
    FLAGS DCP
    INDEX 01 38:39:58
  TRACK 13 AUDIO
    TITLE "XXL"
    PERFORMER "Мастер"
    FLAGS DCP
    INDEX 01 40:43:31
  TRACK 14 AUDIO
    TITLE "Intro"
    PERFORMER "Мастер"
    FLAGS DCP
    INDEX 01 40:49:31
  TRACK 15 AUDIO
    TITLE "Дети Подземелья"
    PERFORMER "Мастер"
    FLAGS DCP
    INDEX 01 42:04:54

2005 - Мастер - Акустика (CD-MAXIMUM, RU, CDM 0905-2409&#41;

Лог создания рипа

EAC extraction logfile from 21. May 2007, 1:55 for CD
Мастер / Акустика
Used drive  : PIONEER DVD-RW  DVR-K12D   Adapter: 1  ID: 0
Read mode   : Secure with NO C2, accurate stream, disable cache
Read offset correction : 48
Overread into Lead-In and Lead-Out : No
Used output format : Internal WAV Routines
                     44.100 Hz; 16 Bit; Stereo
Other options      :
    Fill up missing offset samples with silence : Yes
    Delete leading and trailing silent blocks : No
    Native Win32 interface for Win NT & 2000
Range status and errors
Selected range
     Filename G:\Мастер XX лет\Мастер - Акустика.wav
     Peak level 96.6 %
     Range quality 100.0 %
     CRC A2DD172C
     Copy OK
No errors occured
End of status report

Индексная карта (non-compilant .cue&#41;

REM DISCID 8F0B680B
REM COMMENT "ExactAudioCopy v0.95b4"
PERFORMER "Мастер"
TITLE "Акустика"
FILE "Мастер - Акустика.ape" WAVE
  TRACK 01 AUDIO
    TITLE "Плач Свирели"
    PERFORMER "Мастер"
    FLAGS DCP
    INDEX 01 00:00:00
  TRACK 02 AUDIO
    TITLE "Тореро"
    PERFORMER "Мастер"
    FLAGS DCP
    INDEX 00 03:52:67
    INDEX 01 03:54:67
    INDEX 02 05:10:51
    INDEX 03 06:06:41
  TRACK 03 AUDIO
    TITLE "Високосный Век"
    PERFORMER "Мастер"
    FLAGS DCP
    INDEX 00 08:56:27
    INDEX 01 08:58:27
    INDEX 02 09:00:38
    INDEX 03 09:16:42
  TRACK 04 AUDIO
    TITLE "33 Жизни"
    PERFORMER "Мастер"
    FLAGS DCP
    INDEX 00 14:24:62
    INDEX 01 14:26:62
  TRACK 05 AUDIO
    TITLE "Палачи"
    PERFORMER "Мастер"
    FLAGS DCP
    INDEX 00 18:05:08
    INDEX 01 18:07:08
    INDEX 02 19:54:19
    INDEX 03 20:45:27
  TRACK 06 AUDIO
    TITLE "Heavy Ламбада"
    PERFORMER "Мастер"
    FLAGS DCP
    INDEX 00 22:15:22
    INDEX 01 22:17:22
    INDEX 02 23:38:17
    INDEX 03 24:39:08
    INDEX 04 26:40:49
  TRACK 07 AUDIO
    TITLE "Пепел На Ветру"
    PERFORMER "Мастер"
    FLAGS DCP
    INDEX 00 27:02:07
    INDEX 01 27:04:07
    INDEX 02 27:08:54
    INDEX 03 27:16:04
    INDEX 04 30:46:35
  TRACK 08 AUDIO
    TITLE "Игра"
    PERFORMER "Мастер"
    FLAGS DCP
    INDEX 00 31:18:17
    INDEX 01 31:20:17
    INDEX 02 34:02:22
    INDEX 03 35:06:08
  TRACK 09 AUDIO
    TITLE "Кресты"
    PERFORMER "Мастер"
    FLAGS DCP
    INDEX 00 35:20:48
    INDEX 01 35:22:48
    INDEX 02 37:40:13
    INDEX 03 41:02:07
    INDEX 04 41:05:64
    INDEX 05 41:09:18
    INDEX 06 41:16:04
    INDEX 07 41:22:60
  TRACK 10 AUDIO
    TITLE "Здесь Куют Металл"
    PERFORMER "Мастер"
    FLAGS DCP
    INDEX 00 41:46:19
    INDEX 01 41:48:19
    INDEX 02 42:40:34
    INDEX 03 44:06:52
    INDEX 04 44:44:63
  TRACK 11 AUDIO
    TITLE "Ветер"
    PERFORMER "Мастер"
    FLAGS DCP
    INDEX 00 46:40:65
    INDEX 01 46:42:65
    INDEX 02 47:38:40
    INDEX 03 47:42:58
    INDEX 04 47:50:22
    INDEX 05 47:50:42
    INDEX 06 47:54:72
    INDEX 07 47:56:65
    INDEX 08 48:02:09

2006 - Мастер - По ту сторону сна (CD-MAXIMUM, RU, CDM 0506-2521&#41;

Лог создания рипа

EAC extraction logfile from 20. May 2007, 23:05 for CD
Мастер / По Ту Сторону Сна
Used drive  : PIONEER DVD-RW  DVR-K12D   Adapter: 1  ID: 0
Read mode   : Secure with NO C2, accurate stream, disable cache
Read offset correction : 48
Overread into Lead-In and Lead-Out : No
Used output format : Internal WAV Routines
                     44.100 Hz; 16 Bit; Stereo
Other options      :
    Fill up missing offset samples with silence : Yes
    Delete leading and trailing silent blocks : No
    Native Win32 interface for Win NT & 2000
Range status and errors
Selected range
     Filename G:\Мастер XX лет\Мастер - По Ту Сторону Сна.wav
     Peak level 100.0 %
     Range quality 100.0 %
     CRC 8C59EB91
     Copy OK
No errors occured
End of status report

Индексная карта (non-compilant .cue&#41;

REM GENRE "Trash Metal"
REM DATE 2006
REM DISCID 1E111215
REM COMMENT "ExactAudioCopy v0.95b4"
PERFORMER "Мастер"
TITLE "По Ту Сторону Сна"
FILE "Мастер - По Ту Сторону Сна.ape" WAVE
  TRACK 01 AUDIO
    TITLE "Танец"
    PERFORMER "Мастер"
    FLAGS DCP
    INDEX 01 00:00:00
  TRACK 02 AUDIO
    TITLE "Гений Рока"
    PERFORMER "Мастер"
    FLAGS DCP
    INDEX 00 05:03:29
    INDEX 01 05:05:29
  TRACK 03 AUDIO
    TITLE "Музыка Сфер"
    PERFORMER "Мастер"
    FLAGS DCP
    INDEX 00 08:35:23
    INDEX 01 08:37:23
  TRACK 04 AUDIO
    TITLE "За Гранью"
    PERFORMER "Мастер"
    FLAGS DCP
    INDEX 00 13:06:73
    INDEX 01 13:08:73
  TRACK 05 AUDIO
    TITLE "Песня Аннушки"
    PERFORMER "Мастер"
    FLAGS DCP
    INDEX 01 17:52:15
  TRACK 06 AUDIO
    TITLE "Смерть Берлиоза"
    PERFORMER "Мастер"
    FLAGS DCP
    INDEX 01 18:35:46
  TRACK 07 AUDIO
    TITLE "Конферанс"
    PERFORMER "Мастер"
    FLAGS DCP
    INDEX 00 19:02:46
    INDEX 01 19:04:46
  TRACK 08 AUDIO
    TITLE "Мечтай"
    PERFORMER "Мастер"
    FLAGS DCP
    INDEX 01 19:21:67
  TRACK 09 AUDIO
    TITLE "Война (live in studio)"
    PERFORMER "Мастер"
    FLAGS DCP
    INDEX 00 24:01:58
    INDEX 01 24:03:58
  TRACK 10 AUDIO
    TITLE "По Ту Сторону Сна (часть 1)"
    PERFORMER "Мастер"
    FLAGS DCP
    INDEX 00 25:02:29
    INDEX 01 25:04:29
  TRACK 11 AUDIO
    TITLE "Лес Брокилон"
    PERFORMER "Мастер"
    FLAGS DCP
    INDEX 00 28:36:68
    INDEX 01 28:40:68
  TRACK 12 AUDIO
    TITLE "Крысы"
    PERFORMER "Мастер"
    FLAGS DCP
    INDEX 00 31:15:62
    INDEX 01 31:17:62
  TRACK 13 AUDIO
    TITLE "Сын Камня"
    PERFORMER "Мастер"
    FLAGS DCP
    INDEX 00 36:14:49
    INDEX 01 36:16:49
  TRACK 14 AUDIO
    TITLE "Время Варваров"
    PERFORMER "Мастер"
    FLAGS DCP
    INDEX 00 40:06:08
    INDEX 01 40:08:08
  TRACK 15 AUDIO
    TITLE "Live In Studio"
    PERFORMER "Мастер"
    FLAGS DCP
    INDEX 01 43:36:20
  TRACK 16 AUDIO
    TITLE "Omut"
    PERFORMER "Мастер"
    FLAGS DCP
    INDEX 01 45:29:12
  TRACK 17 AUDIO
    TITLE "Мраморный Ангел"
    PERFORMER "Мастер"
    FLAGS DCP
    INDEX 00 46:03:53
    INDEX 01 46:05:53
  TRACK 18 AUDIO
    TITLE "По Ту Сторону Сна (часть 2) (live in studio)"
    PERFORMER "Мастер"
    FLAGS DCP
    INDEX 00 50:08:04
    INDEX 01 50:10:04
  TRACK 19 AUDIO
    TITLE "Бардак"
    PERFORMER "Мастер"
    FLAGS DCP
    INDEX 00 53:39:27
    INDEX 01 53:41:27
  TRACK 20 AUDIO
    TITLE "Бардак 2"
    PERFORMER "Мастер"
    FLAGS DCP
    INDEX 00 55:04:00
    INDEX 01 55:06:00

2008 - Мастер - XX лет (LIVE&#41; (2CD&#41; (CD-MAXIMUM, RU, CDM 0608-2889

CD 1

Лог создания рипа

EAC extraction logfile from 10. July 2008, 22:57 for CD
Мастер / XX лет (LIVE)
Used drive  : Optiarc DVD RW AD-7543A   Adapter: 1  ID: 0
Read mode   : Secure with NO C2, accurate stream, disable cache
Read offset correction : 48
Overread into Lead-In and Lead-Out : No
Used output format : Internal WAV Routines
                     44.100 Hz; 16 Bit; Stereo
Other options      :
    Fill up missing offset samples with silence : Yes
    Delete leading and trailing silent blocks : No
    Native Win32 interface for Win NT & 2000
Range status and errors
Selected range
     Filename C:\Мастер - XX лет (LIVE)\Мастер - XX лет (LIVE) CD1.wav
     Peak level 100.0 %
     Range quality 100.0 %
     CRC D253CDDF
     Copy OK
No errors occured
End of status report

Индексная карта (non-compilant .cue&#41;

REM GENRE Metal
REM DATE 2008
REM DISCID A30C4E0A
REM COMMENT "ExactAudioCopy v0.95b4"
PERFORMER "Мастер"
TITLE "XX лет (LIVE)"
FILE "Мастер - XX лет (LIVE) CD1.ape" WAVE
  TRACK 01 AUDIO
    TITLE "Игра"
    PERFORMER "Мастер"
    FLAGS DCP
    INDEX 01 00:00:00
  TRACK 02 AUDIO
    TITLE "Вера Горит На Кострах"
    PERFORMER "Мастер"
    FLAGS DCP
    INDEX 01 04:52:61
  TRACK 03 AUDIO
    TITLE "Места Хватит Всем"
    PERFORMER "Мастер"
    FLAGS DCP
    INDEX 01 09:41:09
  TRACK 04 AUDIO
    TITLE "Тату"
    PERFORMER "Мастер"
    FLAGS DCP
    INDEX 01 14:54:22
  TRACK 05 AUDIO
    TITLE "Песни Мертвых"
    PERFORMER "Мастер"
    FLAGS DCP
    INDEX 01 19:36:04
  TRACK 06 AUDIO
    TITLE "Кресты"
    PERFORMER "Мастер"
    FLAGS DCP
    INDEX 01 24:55:66
  TRACK 07 AUDIO
    TITLE "33 Жизни"
    PERFORMER "Мастер"
    FLAGS DCP
    INDEX 01 32:22:70
  TRACK 08 AUDIO
    TITLE "Heavy Ламбада"
    PERFORMER "Мастер"
    FLAGS DCP
    INDEX 01 36:11:27
  TRACK 09 AUDIO
    TITLE "Только Ты Сам"
    PERFORMER "Мастер"
    FLAGS DCP
    INDEX 01 42:01:33
  TRACK 10 AUDIO
    TITLE "За Гранью"
    PERFORMER "Мастер"
    FLAGS DCP
    INDEX 01 46:36:44

CD 2

Лог создания рипа

EAC extraction logfile from 10. July 2008, 23:17 for CD
Мастер / XX лет
Used drive  : Optiarc DVD RW AD-7543A   Adapter: 1  ID: 0
Read mode   : Secure with NO C2, accurate stream, disable cache
Read offset correction : 48
Overread into Lead-In and Lead-Out : No
Used output format : Internal WAV Routines
                     44.100 Hz; 16 Bit; Stereo
Other options      :
    Fill up missing offset samples with silence : Yes
    Delete leading and trailing silent blocks : No
    Native Win32 interface for Win NT & 2000
Range status and errors
Selected range
     Filename C:\Мастер - XX лет (LIVE)\Мастер - XX лет (LIVE) CD2.wav
     Peak level 100.0 %
     Range quality 99.9 %
     CRC 6AA36826
     Copy OK
No errors occured
End of status report

Индексная карта (non-compilant .cue&#41;

REM GENRE Metal
REM DATE 2008
REM DISCID 9F0D310B
REM COMMENT "ExactAudioCopy v0.95b4"
PERFORMER "Мастер"
TITLE "XX лет"
FILE "Мастер - XX лет (LIVE) CD2.ape" WAVE
  TRACK 01 AUDIO
    TITLE "Пепел На Ветру"
    PERFORMER "Мастер"
    FLAGS DCP
    INDEX 01 00:00:00
  TRACK 02 AUDIO
    TITLE "Heroes"
    PERFORMER "Мастер"
    FLAGS DCP
    INDEX 01 04:42:30
  TRACK 03 AUDIO
    TITLE "Руки Прочь"
    PERFORMER "Мастер"
    FLAGS DCP
    INDEX 00 08:25:08
    INDEX 01 08:25:09
  TRACK 04 AUDIO
    TITLE "Не Хотим"
    PERFORMER "Мастер"
    FLAGS DCP
    INDEX 01 13:29:47
  TRACK 05 AUDIO
    TITLE "Палачи"
    PERFORMER "Мастер"
    FLAGS DCP
    INDEX 01 17:03:69
  TRACK 06 AUDIO
    TITLE "Еще Раз Ночь"
    PERFORMER "Мастер"
    FLAGS DCP
    INDEX 01 22:26:17
  TRACK 07 AUDIO
    TITLE "Тореро"
    PERFORMER "Мастер"
    FLAGS DCP
    INDEX 01 27:23:74
  TRACK 08 AUDIO
    TITLE "Без Тебя"
    PERFORMER "Мастер"
    FLAGS DCP
    INDEX 01 33:16:37
  TRACK 09 AUDIO
    TITLE "Здесь Куют Металл"
    PERFORMER "Мастер"
    FLAGS DCP
    INDEX 01 37:52:18
  TRACK 10 AUDIO
    TITLE "Встрань, Страх Преодолей"
    PERFORMER "Мастер"
    FLAGS DCP
    INDEX 01 45:04:66
  TRACK 11 AUDIO
    TITLE "Мастер"
    PERFORMER "Мастер"
    FLAGS DCP
    INDEX 01 49:16:17

2010 - Мастер - VIII (CD-MAXIMUM, RU, CDM 0910-2985&#41;

Лог создания рипа

Exact Audio Copy V0.99 prebeta 5 from 4. May 2009
Отчёт EAC об извлечении, выполненном 27. сентября 2010, 21:18
Мастер / VIII
Дисковод: HL-DT-STDVD-RW_GSA-H41N   Adapter: 2  ID: 1
Режим чтения                 : Достоверность
Использование точного потока : Да
Отключение кэша аудио        : Да
Использование указателей C2  : Нет
Коррекция смещения при чтении                     : 667
Способность читать области Lead-in и Lead-out     : Нет
Заполнение пропущенных сэмплов тишиной            : Да
Удаление блоков с тишиной в начале и конце        : Нет
При вычислениях CRC использовались нулевые сэмплы : Да
Интерфейс                                         : Встроенный Win32-интерфейс для Win NT/2000
Выходной формат          : Пользовательский кодировщик
Выбранный битрейт        : 1024 kBit/s
Качество                 : Высокий
Добавление ID3-тэга      : Нет
Утилита сжатия           : C:\Program Files\Exact Audio Copy\Flac\flac.exe
Дополнительные параметры : -8 -V %s
TOC извлечённого CD
     Трек |   Старт  | Длительность | Начальный сектор | Конечный сектор
    ---------------------------------------------------------------------
       1  |  0:00.00 |    1:02.34   |           0      |       4683
       2  |  1:02.34 |    4:01.74   |        4684      |      22832
       3  |  5:04.33 |    4:58.51   |       22833      |      45233
       4  | 10:03.09 |    6:17.23   |       45234      |      73531
       5  | 16:20.32 |    4:14.37   |       73532      |      92618
       6  | 20:34.69 |    4:54.46   |       92619      |     114714
       7  | 25:29.40 |    3:36.43   |      114715      |     130957
       8  | 29:06.08 |    5:10.21   |      130958      |     154228
       9  | 34:16.29 |    3:49.25   |      154229      |     171428
      10  | 38:05.54 |    2:04.22   |      171429      |     180750
      11  | 40:10.01 |    5:07.35   |      180751      |     203810
      12  | 45:17.36 |    5:20.27   |      203811      |     227837
      13  | 50:37.63 |    3:37.13   |      227838      |     244125
      14  | 54:15.01 |    1:04.37   |      244126      |     248962
Характеристики диапазона извлечения и сообщения об ошибках
Выбранный диапазон
     Имя файла E:\Lossless\Мастер - VIII.wav
     Пиковый уровень 100.0 %
     Качество диапазона 100.0 %
     CRC теста 4DC8944D
     CRC копии 4DC8944D
     Копирование... OK
Ошибок не произошло
AccurateRip: сводка
Трек  1  нет в базе данных
Трек  2  нет в базе данных
Трек  3  нет в базе данных
Трек  4  нет в базе данных
Трек  5  нет в базе данных
Трек  6  нет в базе данных
Трек  7  нет в базе данных
Трек  8  нет в базе данных
Трек  9  нет в базе данных
Трек 10  нет в базе данных
Трек 11  нет в базе данных
Трек 12  нет в базе данных
Трек 13  нет в базе данных
Трек 14  нет в базе данных
Ни одного трека нет в базе AccurateRip
Конец отчёта

Индексная карта (non-compilant .cue&#41;

REM GENRE "Heavy Metal"
REM DATE 2010
REM DISCID BB0CF70E
REM COMMENT "ExactAudioCopy v0.99pb5"
PERFORMER "Мастер"
TITLE "VIII"
FILE "Мастер - VIII.flac" WAVE
  TRACK 01 AUDIO
    TITLE "Восьмая дверь (Intro)"
    PERFORMER "Мастер"
    INDEX 01 00:00:00
  TRACK 02 AUDIO
    TITLE "Замри!"
    PERFORMER "Мастер"
    INDEX 01 01:02:34
  TRACK 03 AUDIO
    TITLE "Бульдозер"
    PERFORMER "Мастер"
    INDEX 01 05:04:33
  TRACK 04 AUDIO
    TITLE "Суд идет"
    PERFORMER "Мастер"
    INDEX 01 10:03:09
  TRACK 05 AUDIO
    TITLE "Большой брат"
    PERFORMER "Мастер"
    INDEX 01 16:20:32
  TRACK 06 AUDIO
    TITLE "Воздух!"
    PERFORMER "Мастер"
    INDEX 01 20:34:69
  TRACK 07 AUDIO
    TITLE "Стальная дверь"
    PERFORMER "Мастер"
    INDEX 01 25:29:40
  TRACK 08 AUDIO
    TITLE "Человек-саранча"
    PERFORMER "Мастер"
    INDEX 01 29:06:08
  TRACK 09 AUDIO
    TITLE "Рубите мачты!"
    PERFORMER "Мастер"
    INDEX 01 34:16:29
  TRACK 10 AUDIO
    TITLE "Берег иллюзий (бас-соло)"
    PERFORMER "Мастер"
    INDEX 01 38:05:54
  TRACK 11 AUDIO
    TITLE "Kings Of Rock-n-Roll (RU)"
    PERFORMER "Мастер"
    INDEX 01 40:10:01
  TRACK 12 AUDIO
    TITLE "Они как мы"
    PERFORMER "Мастер"
    INDEX 01 45:17:36
  TRACK 13 AUDIO
    TITLE "Kings Of Rock-n-Roll (ENG)"
    PERFORMER "Мастер"
    INDEX 01 50:37:63
  TRACK 14 AUDIO
    TITLE "Начало восьмого"
    PERFORMER "Мастер"
    INDEX 01 54:15:01
[Профиль] [ЛС]
Показать сообщения:    

Текущее время: Сегодня 12:34

Часовой пояс: GMT



Вы не можете начинать темы
Вы не можете отвечать на сообщения
Вы не можете редактировать свои сообщения
Вы не можете удалять свои сообщения
Вы не можете голосовать в опросах
Вы не можете прикреплять файлы к сообщениям
Вы не можете скачивать файлы