Маски-Шоу [001-110 из 110] (1990-2006) WEBRip от Generalfilm | КПК

 
Автор Сообщение

sergej644 ®

Пол:

Стаж: 4 года 11 месяцев

Сообщений: 6045

Откуда: Soviet Union



Награды: Нет

Торрент-статистика

Создавать темы 25-Июл-2015 20:39

[Цитировать]

Информация о фильме
Название: Укажите принятое в России название
Оригинальное название: Маски-шоу
Год выхода: 1990
Жанр: Комедия, юмор, шоу
Режиссер: Георгий Делиев
В ролях: Наталья Бузько, Георгий Делиев, Борис Барский, Владимир Комаров, Игорь Малахов, Александр Постоленко
О фильме:
Знаменитый юмористический сериал в стиле немого кино от комик-труппы «Маски», одного из ведущих коллективов в России и Восточной Европе, работающего в жанре пантомимы, клоунады и эксцентрики.

Страна: Россия, Украина
Студия: ПЦ "Московский стиль", ТО "Маски"
Продолжительность: 110 х ~ 00:25:00
Перевод: Не требуется
Файл
Формат: MP4
Качество: WEBRip | КПК
Видео: MPEG-4 AVC (x264), 640x480, ~500 kbps, 25.000 fps
Аудио: AAC LC, 44.1 KHz, 2 ch, 128 Kbps
Субтитры: Нет

Список серий:

001. Кабаре Маски‐Шоу. Эпизод 1
002. Кабаре Маски‐Шоу. Эпизод 2
003. Кабаре Маски‐Шоу. Эпизод 3
004. Кабаре Маски‐Шоу. Эпизод 4
005. Кабаре Маски‐Шоу. Эпизод 5
006. Кабаре Маски‐Шоу. Эпизод 6
007. Кабаре Маски‐Шоу. Эпизод 7
008. Кабаре Маски‐Шоу. Эпизод 8
009. Кабаре Маски‐Шоу. Эпизод 9
010. Кабаре Маски‐Шоу. Эпизод 10
011. Кабаре Маски‐Шоу. Эпизод 11
012. Кабаре Маски‐Шоу. Эпизод 12
013. Кабаре Маски‐Шоу. Эпизод 13
014. Кабаре Маски‐Шоу. Эпизод 14
015. Кабаре Маски‐Шоу. Эпизод 15
016. Кабаре Маски‐Шоу. Эпизод 16
017. Маски в «России». Эпизод 1
018. Маски в «России». Эпизод 2
019. Маски в «России». Эпизод 3
020. Маски в «России». Эпизод 4
021. Маски в ГАИ
022. Маски в Германии
023. Маски в Одессе
024. Маски в Стране Восходящего Солнца
025. Маски в армии. Эпизод 1
026. Маски в армии. Эпизод 2
027. Маски в больнице. Эпизод
028. Маски в больнице. Эпизод 2
029. Маски в казино
030. Маски в кинотеатре
031. Маски в колхозе. Эпизод 1
032. Маски в колхозе. Эпизод 2
033. Маски в криминале ﴾Похищенный﴿
034. Маски в опере‐1
035. Маски в опере‐2. Эпизод 1
036. Маски в опере‐2. Эпизод 2
037. Маски в парке
038. Маски в партизанском отряде. Эпизод 1
039. Маски в партизанском отряде. Эпизод 2
040. Маски в партизанском отряде. Эпизод 3
041. Маски в партизанском отряде. Эпизод 4
042. Маски в поезде. Эпизод 1
043. Маски в поезде. Эпизод 2
044. Маски в суде. Эпизод 1
045. Маски в суде. Эпизод 2
046. Маски в троллейбусе
047. Маски в тюрьме. Эпизод 1
048. Маски в тюрьме. Эпизод 2
049. Маски грабят банк
050. Маски и Джентльмены. Эпизод 1
051. Маски и Джентльмены. Эпизод 2
052. Маски ищут клад ﴾Маски в Колумбии﴿
053. Маски на Выборах. Эпизод 1
054. Маски на Выборах. Эпизод 2
055. Маски на Выборах. Эпизод 3
056. Маски на Выборах. Эпизод 4
057. Маски на Выборах. Эпизод 5
058. Маски на Выборах. Эпизод 6
059. Маски на Диком Востоке. Эпизод 1
060. Маски на Диком Востоке. Эпизод 2
061. Маски на боях без правил
062. Маски на именинах. Эпизод 1
063. Маски на именинах. Эпизод 2
064. Маски на киностудии. Эпизод 1
065. Маски на киностудии. Эпизод 2
066. Маски на митинге
067. Маски на необитаемом острове.
068. Маски на необитаемом острове.
069. Маски на пароходе
070. Маски на пикнике
071. Маски на пожаре
072. Маски на ремонте
073. Маски на свадьбе
074. Маски на секретном объекте
075. Маски под Новый Год
076. Маски спорт-шоу. Эпизод 1
077. Маски спорт-шоу. Эпизод 2
078. Дракула – роковой треугольник
079. Лямур кафе
080. Трое в чуме. Эпизод 1
081. Трое в чуме. Эпизод 2
082. Честь самурая. Эпизод 1
083. Честь самурая. Эпизод 2
084. Шахерезада – 1002 ночь
085. Мумия в гостях у Масок. Эпизод 1
086. Мумия в гостях у Масок. Эпизод 2
087. Пришелец в гостях у Масок. Эпизод 1
088. Пришелец в гостях у Масок. Эпизод 2
089. Пришелец в гостях у Масок. Эпизод 3
090. Пришелец в гостях у Масок. Эпизод 4
091. Суперскетчи «Маски‐шоу». Эпизод 1
092. Суперскетчи «Маски‐шоу». Эпизод 2
093. Суперскетчи «Маски‐шоу». Эпизод 3
094. Суперскетчи «Маски‐шоу». Эпизод 4
095. Суперскетчи «Маски‐шоу». Эпизод 5
096. Суперскетчи «Маски‐шоу». Эпизод 6
097. Маски. Презентационное шоу
098. Маски‐ жизнь как шоу
099. Маски‐шоу продолжается
100. Маски‐Информ. Эпизод 1
101. Маски‐Информ. Эпизод 2
102. Маски‐Информ. Эпизод 3
103. Маски‐Информ. Эпизод 4
104. Маски – 15 лет спустя. Часть 1
105. Маски – 15 лет спустя. Часть 2
106. Маски – 15 лет спустя. Часть 3
107. Маски – 15 лет спустя. Часть 4
108. Маски – 15 лет спустя. Часть 5
109. Маски – 15 лет спустя. Часть 6
110. Маски – 15 лет спустя. Часть 7
Семпл

Скриншоты

MI

Complete name : E:KinoMaski.Show.AVC.WEBRip.KPK.GeneralfilmMaski.Show.seriya.017.Masky.V.Rossii.e01.mp4
Format : MPEG-4
Codec ID : M4V
File size : 109 MiB
Duration : 24mn 4s
Overall bit rate mode : Variable
Overall bit rate : 634 Kbps
Writing application : Lavf53.19.0
Video
ID : 1
Format : AVC
Format/Info : Advanced Video Codec
Format profile : High@L4.1
Format settings, CABAC : Yes
Format settings, ReFrames : 8 frames
Codec ID : avc1
Codec ID/Info : Advanced Video Coding
Duration : 24mn 4s
Bit rate : 500 Kbps
Width : 640 pixels
Height : 480 pixels
Display aspect ratio : 4:3
Frame rate mode : Constant
Frame rate : 25.000 fps
Color space : YUV
Chroma subsampling : 4:2:0
Bit depth : 8 bits
Scan type : Progressive
Bits/(Pixel*Frame) : 0.065
Stream size : 86.1 MiB (79%)
Writing library : x264 core 130 r2273 b3065e6
Encoding settings : cabac=1 / ref=8 / deblock=1:-2:-2 / analyse=0x3:0x133 / me=umh / subme=10 / psy=1 / psy_rd=1.00:0.00 / mixed_ref=1 / me_range=24 / chroma_me=1 / trellis=2 / 8x8dct=1 / cqm=0 / deadzone=21,11 / fast_pskip=1 / chroma_qp_offset=-2 / threads=12 / lookahead_threads=2 / sliced_threads=0 / nr=0 / decimate=0 / interlaced=0 / bluray_compat=0 / constrained_intra=0 / bframes=8 / b_pyramid=2 / b_adapt=2 / b_bias=0 / direct=3 / weightb=1 / open_gop=0 / weightp=2 / keyint=250 / keyint_min=126 / scenecut=40 / intra_refresh=0 / rc_lookahead=40 / rc=2pass / mbtree=1 / bitrate=500 / ratetol=1.0 / qcomp=0.60 / qpmin=0 / qpmax=69 / qpstep=4 / cplxblur=20.0 / qblur=0.5 / ip_ratio=1.40 / aq=1:1.00
Audio
ID : 2
Format : AAC
Format/Info : Advanced Audio Codec
Format profile : LC
Codec ID : 40
Duration : 24mn 4s
Bit rate mode : Variable
Bit rate : 128 Kbps
Channel(s) : 2 channels
Channel positions : Front: L R
Sampling rate : 44.1 KHz
Compression mode : Lossy
Stream size : 22.0 MiB (20%)
Релиз от:
[Профиль] [ЛС]
Показать сообщения:    

Текущее время: Сегодня 09:54

Часовой пояс: GMT



Вы не можете начинать темы
Вы не можете отвечать на сообщения
Вы не можете редактировать свои сообщения
Вы не можете удалять свои сообщения
Вы не можете голосовать в опросах
Вы не можете прикреплять файлы к сообщениям
Вы не можете скачивать файлы