Маска / The Mask (1994) BDRip 720p от R.G. HD-Films | 60 fps

 
Автор Сообщение

BOSS ®

Пол:

Стаж: 2 года 1 месяц

Сообщений: 3748

Откуда: ODESSA



Награды: 20 (Подробнее)

Top Seeder 4 (Количество: 1) Top Seeder 2 (Количество: 1) Mega Releaser 3 (Количество: 1)
Торрент-статистика

Создавать темы 27-Мар-2016 15:57

[Цитировать]

-Название: Маска
Оригинальное название: The Mask
Год выпуска: 1994
Страна: США
Жанр: фэнтези, комедия
Продолжительность: 01:41:12
Перевод: MVO, DVO, AVO, VO, Original
Субтитры: русские (Форсированные), русские (Полные R5), русские (Полные Ray), русские (Полные Subzero), английские (Полные)-Режиссер: Чак Рассел-В ролях: Джим Керри (Stanley Ipkiss / The Mask), Кэмерон Диаз (Tina Carlyle), Питер Ригерт (Lt. Mitch Kellaway), Питер Грин (Dorian), Эми Ясбек (Peggy Brandt), Ричард Джени (Charlie Schumaker), Орестес Матасена (Niko), Тим Бэгли (Irv), Нэнси Фиш (Mrs. Peenman), Джонни Уильямс (Burt), Рег Э. Кэти (Freeze), Джим Дуган (Doyle)-Описание:
Скромный, застенчивый служащий банка закомплексован настолько, что чувствует себя неуверенно с красивыми девушками. Волею судьбы к нему попадает волшебная маска, и Стенли Ипкис приобретает способность превращаться в неуязвимое мультяшное существо из забавных комиксов.
Он становится супергероем, готовым бороться с преступностью, как Бэтмен. Итак, днем он по-прежнему скромный и незадачливый служащий, а по ночам - супермен...-Рейтинг:

MPAA: PG-13 - Детям до 13 лет просмотр не желателен-Качество: BDRip 720p 60fps
Формат: MKV
Видео: AVC, 1280x720 (16:9), 8733 kbps, 60 fps, 0,158 bpp
Аудио 01: русский / AC3 / 5.1 / 48 kHz / 448 kbps / 16 bit |(MVO) R5|
Аудио 02: русский / AC3 / 5.1 / 48 kHz / 640 kbps / 16 bit |(MVO) Киномания (Отдельно в папке)|
Аудио 03: русский / AC3 / 5.1 / 48 kHz / 384 kbps / 16 bit |(MVO) Латышев и люди (Отдельно в папке)|
Аудио 04: русский / AC3 / 2.0 / 48 kHz / 192 kbps / 16 bit |(MVO) НТВ+ (Отдельно в папке)|
Аудио 05: русский / AC3 / 2.0 / 48 kHz / 192 kbps / 16 bit |(MVO) НТВ, THT, Рен ТВ (Отдельно в папке)|
Аудио 06: русский / AC3 / 2.0 / 48 kHz / 192 kbps / 16 bit |(MVO) TV1000 (Отдельно в папке)|
Аудио 07: русский / AC3 / 1.0 / 48 kHz / 192 kbps / 16 bit |(MVO) Премьер Видео фильм (Отдельно в папке)|
Аудио 08: русский / AC3 / 5.1 / 48 kHz / 640 kbps / 16 bit |(DVO) Superbit (Отдельно в папке)|
Аудио 09: русский / AC3 / 5.1 / 48 kHz / 640 kbps / 16 bit |(AVO) В. Горчаков (Отдельно в папке)|
Аудио 10: русский / AC3 / 5.1 / 48 kHz / 640 kbps / 16 bit |(AVO) П. Санаев (Отдельно в папке)|
Аудио 11: русский / AC3 / 5.1 / 48 kHz / 640 kbps / 16 bit |(AVO) Ю. Живов (Отдельно в папке)|
Аудио 12: русский / AC3 / 5.1 / 48 kHz / 384 kbps / 16 bit |(AVO) CDV (Отдельно в папке)|
Аудио 13: русский / AC3 / 5.1 / 48 kHz / 448 kbps / 16 bit |(VO) Б. Федоров (Отдельно в папке)|
Аудио 14: русский / AC3 / 2.0 / 48 kHz / 256 kbps / 16 bit |(VO) Женщина (Отдельно в папке)|
Аудио 15: русский / AC3 / 1.0 / 48 kHz / 192 kbps / 16 bit |(VO) Мужчина (Отдельно в папке)|
Аудио 16: русский / AC3 / 2.0 / 48 kHz / 96 kbps / 16 bit |(VO) Перевод ком. Чака Рассела (Отдельно в папке)|
Аудио 17: русский / AC3 / 2.0 / 48 kHz / 96 kbps / 16 bit |(VO) Перевод ком. Реж. и продюс. (Отдельно в папке)|
Аудио 18: украинский / AC3 / 2.0 / 48 kHz / 320 kbps / 16 bit |(MVO) Многоголосый, закадровый (Отдельно в папке)|
Аудио 19: английский / AC3 / 5.1 / 48 kHz / 640 kbps / 16 bit |(Original) Оригинал (Отдельно в папке)|
Аудио 20: английский / AC3 / 2.0 / 48 kHz / 192 kbps / 16 bit |(Commentary) Чак Рассел (Отдельно в папке)|
Аудио 21: английский / AC3 / 2.0 / 48 kHz / 192 kbps / 16 bit |(Commentary) Реж. и продюссеры (Отдельно в папке)|
Навигация по главам: есть- -

ОтчетМедиаИнфо

General
Unique ID : 252558348247394714954641303371328863542 (0xBE00F7F38354D804BE196FDA10393D36)
Format : Matroska
Format version : Version 4 / Version 2
File size : 6.62 GiB
Duration : 1h 41mn
Overall bit rate mode : Variable
Overall bit rate : 9 368 Kbps
Movie name : Tiberiumsun69
Encoded date : UTC 2016-03-26 13:07:03
Writing application : mkvmerge v8.3.0 ('Over the Horizon') 64bit
Writing library : libebml v1.3.1 + libmatroska v1.4.2
DURATION : 01:40:18.352000000
NUMBER_OF_FRAMES : 1060
NUMBER_OF_BYTES : 28306
_STATISTICS_WRITING_APP : mkvmerge v8.3.0 ('Over the Horizon') 64bit
_STATISTICS_WRITING_DATE_UTC : 2016-03-26 13:07:03
_STATISTICS_TAGS : BPS DURATION NUMBER_OF_FRAMES NUMBER_OF_BYTES
Attachment : Yes
Video
ID : 1
Format : AVC
Format/Info : Advanced Video Codec
Format profile : High@L4.1
Format settings, CABAC : Yes
Format settings, ReFrames : 3 frames
Format settings, GOP : M=3, N=60
Codec ID : V_MPEG4/ISO/AVC
Duration : 1h 41mn
Bit rate mode : Variable
Bit rate : 8 733 Kbps
Maximum bit rate : 10 000 Kbps
Width : 1 280 pixels
Height : 720 pixels
Display aspect ratio : 16:9
Frame rate : 60.000 fps
Standard : NTSC
Color space : YUV
Chroma subsampling : 4:2:0
Bit depth : 8 bits
Scan type : Progressive
Bits/(Pixel*Frame) : 0.158
Stream size : 6.17 GiB (93%)
Title : Tiberiumsun69
Language : English
Default : Yes
Forced : No
Color primaries : BT.709-5, BT.1361, IEC 61966-2-4, SMPTE RP177
Transfer characteristics : BT.709-5, BT.1361
Matrix coefficients : BT.709-5, BT.1361, IEC 61966-2-4 709, SMPTE RP177
Audio
ID : 2
Format : AC-3
Format/Info : Audio Coding 3
Mode extension : CM (complete main)
Codec ID : A_AC3
Duration : 1h 41mn
Bit rate mode : Constant
Bit rate : 448 Kbps
Channel(s) : 6 channels
Channel positions : Front: L C R, Side: L R, LFE
Sampling rate : 48.0 KHz
Bit depth : 16 bits
Compression mode : Lossy
Stream size : 324 MiB (5%)
Title : MVO R5
Language : Russian
Default : Yes
Forced : No
Text #1
ID : 3
Format : UTF-8
Codec ID : S_TEXT/UTF8
Codec ID/Info : UTF-8 Plain Text
Title : Форсированные
Language : Russian
Default : Yes
Forced : No
Text #2
ID : 4
Format : UTF-8
Codec ID : S_TEXT/UTF8
Codec ID/Info : UTF-8 Plain Text
Title : Полные R5
Language : Russian
Default : No
Forced : No
Text #3
ID : 5
Format : UTF-8
Codec ID : S_TEXT/UTF8
Codec ID/Info : UTF-8 Plain Text
Title : Полные Ray
Language : Russian
Default : No
Forced : No
Text #4
ID : 6
Format : UTF-8
Codec ID : S_TEXT/UTF8
Codec ID/Info : UTF-8 Plain Text
Title : Полные Subzero
Language : Russian
Default : No
Forced : No
Text #5
ID : 7
Format : UTF-8
Codec ID : S_TEXT/UTF8
Codec ID/Info : UTF-8 Plain Text
Title : Полные
Language : English
Default : No
Forced : No
Menu
00:00:00.000 : en:Main Titles/the Nicest Guy
00:03:38.301 : en:Tina Carlyle
00:07:05.216 : en:The Loaner
00:09:28.651 : en:Congo Bongo Club
00:12:17.987 : en:The Mask
00:14:55.728 : en:A Big Nothing
00:17:48.567 : en:Smokin!
00:22:56.292 : en:Next Morning
00:26:35.010 : en:Peggy Brandt
00:30:34.583 : en:Golf Practice
00:33:57.327 : en:Somebody Stop Me
00:37:28.538 : en:Baby Ain't I Good to You
00:39:43.214 : en:Rock This Joint
00:42:54.572 : en:Award Winning
00:46:03.010 : en:Kellaway
00:48:35.037 : en:50 Grand
00:52:56.423 : en:Loki
00:55:49.680 : en:Landfill Park
01:00:47.269 : en:Cuban Pete
01:04:04.674 : en:What a Rush!
01:09:00.678 : en:Love-Crazy Wild Man
01:16:01.140 : en:Milo to the Rescue
01:19:52.579 : en:Casino Nite
01:26:11.792 : en:Milo and the Mask
01:28:49.699 : en:Spicy Meatball
01:32:59.657 : en:Smokin!/End Credits

Скриншоты

Просьба к переливающим на другие сайты, в оформлении указывайте пожалуйста авторство группы
[Профиль] [ЛС]
Показать сообщения:    

Текущее время: Сегодня 23:30

Часовой пояс: GMT



Вы не можете начинать темы
Вы не можете отвечать на сообщения
Вы не можете редактировать свои сообщения
Вы не можете удалять свои сообщения
Вы не можете голосовать в опросах
Вы не можете прикреплять файлы к сообщениям
Вы не можете скачивать файлы