Маска / The Mask (1994) BDRip 1080p

 
Автор Сообщение

sergej644 ®

Пол:

Стаж: 4 года 11 месяцев

Сообщений: 6046

Откуда: Soviet Union



Награды: Нет

Торрент-статистика

Создавать темы 21-Янв-2015 00:58

[Цитировать]

--Маска / The Mask Информация о фильме
Название: Маска
Оригинальное название: The Mask
Год выхода: 1994
Жанр: фэнтези, боевик, мелодрама, комедия, криминал
Режиссер: Чак Рассел
В ролях: Джим Керри, Питер Ригерт, Питер Грин, Эми Ясбек, Кэмерон Диаз, Орестес Матасена, Тим Бэгли, Нэнси Фиш, Джонни Уильямс, Рег Э. Кэти
О фильме:
Скромный, застенчивый служащий банка закомплексован настолько, что чувствует себя неуверенно с красивыми девушками. Волею судьбы к нему попадает волшебная маска, и Стенли Ипкис приобретает способность превращаться в неуязвимое мультяшное существо из забавных комиксов. Он становится супергероем, готовым бороться с преступностью, как Бэтмен. Итак, днем он по-прежнему скромный и незадачливый служащий, а по ночам - супермен...

Выпущено: США
Студия: Dark Horse Entertainment
Продолжительность: 01:41:12
Перевод: Профессиональный многоголосый закадровый + Оригинал
Файл
Кодек: x264
Качество: BDRip (источник: BD-Remux)
Видео: 1920x1080 (1,78:1), 23.976 fps, 10,2 Mbps
Аудио #1: AC-3, 6 ch, 448 kbps (Rus) MVO
Аудио #2: AC-3, 6 ch, 640 kbps (Eng) Оригинал
Субтитры: Русские, Английские
Скачать: семпл

Скриншоты

MI

Общее
Уникальный идентификатор : 235658640284880236029423698638574511483 (0xB14A3404C5C4D67FAC2AADDCBDE0E57B)
Полное имя : E:The.Mask.1994.BDRip.1080p.Rus.Eng.mkv
Формат : Matroska
Версия формата : Version 2
Размер файла : 7,95 Гбайт
Продолжительность : 1 ч. 41 м.
Общий поток : 11,2 Мбит/сек
Название фильма : Маска / The Mask (1994)
Дата кодирования : UTC 2013-09-06 10:31:36
Программа кодирования : mkvmerge v5.8.0 ('No Sleep / Pillow') built on Sep 2 2012 15:37:04
Библиотека кодирования : libebml v1.2.3 + libmatroska v1.3.0
Видео
Идентификатор : 1
Формат : AVC
Формат/Информация : Advanced Video Codec
Профиль формата : High@L4.1
Параметр CABAC формата : Да
Параметр ReFrames формата : 4 кадра
Идентификатор кодека : V_MPEG4/ISO/AVC
Продолжительность : 1 ч. 41 м.
Битрейт : 10,2 Мбит/сек
Ширина : 1920 пикселей
Высота : 1080 пикселей
Соотношение сторон : 16:9
Режим частоты кадров : Постоянный
Частота кадров : 23,976 кадра/сек
Цветовое пространство : YUV
Субдискретизация насыщенности : 4:2:0
Битовая глубина : 8 бит
Тип развёртки : Прогрессивная
Бит/(Пиксели*Кадры) : 0.204
Размер потока : 7,02 Гбайт (88%)
Заголовок : Release by N1NT3NDO
Библиотека кодирования : x264 core 138 r2358 9e941d1
Настройки программы : cabac=1 / ref=4 / deblock=1:-3:-3 / analyse=0x3:0x133 / me=umh / subme=11 / psy=1 / psy_rd=1.00:0.00 / mixed_ref=1 / me_range=32 / chroma_me=1 / trellis=2 / 8x8dct=1 / cqm=0 / deadzone=21,11 / fast_pskip=0 / chroma_qp_offset=-2 / threads=12 / lookahead_threads=1 / sliced_threads=0 / nr=0 / decimate=0 / interlaced=0 / bluray_compat=0 / constrained_intra=0 / bframes=6 / b_pyramid=2 / b_adapt=2 / b_bias=0 / direct=3 / weightb=1 / open_gop=0 / weightp=2 / keyint=240 / keyint_min=23 / scenecut=40 / intra_refresh=0 / rc_lookahead=80 / rc=2pass / mbtree=0 / bitrate=10159 / ratetol=1.0 / qcomp=0.60 / qpmin=0 / qpmax=69 / qpstep=4 / cplxblur=20.0 / qblur=0.5 / vbv_maxrate=50000 / vbv_bufsize=62500 / nal_hrd=none / ip_ratio=1.40 / pb_ratio=1.30 / aq=1:0.70
Язык : English
Default : Да
Forced : Нет
Аудио #1
Идентификатор : 2
Формат : AC-3
Формат/Информация : Audio Coding 3
Расширение режима : CM (complete main)
Параметр Endianness формата : Big
Идентификатор кодека : A_AC3
Продолжительность : 1 ч. 41 м.
Вид битрейта : Постоянный
Битрейт : 448 Кбит/сек
Каналы : 6 каналов
Расположение каналов : Front: L C R, Side: L R, LFE
Частота : 48,0 КГц
Битовая глубина : 16 бит
Метод сжатия : С потерями
Размер потока : 324 Мбайт (4%)
Заголовок : Rus (MVO)
Язык : Russian
Default : Да
Forced : Нет
Аудио #2
Идентификатор : 3
Формат : AC-3
Формат/Информация : Audio Coding 3
Расширение режима : CM (complete main)
Параметр Endianness формата : Big
Идентификатор кодека : A_AC3
Продолжительность : 1 ч. 41 м.
Вид битрейта : Постоянный
Битрейт : 640 Кбит/сек
Каналы : 6 каналов
Расположение каналов : Front: L C R, Side: L R, LFE
Частота : 48,0 КГц
Битовая глубина : 16 бит
Метод сжатия : С потерями
Размер потока : 463 Мбайт (6%)
Заголовок : Eng
Язык : English
Default : Нет
Forced : Нет
Текст #1
Идентификатор : 4
Формат : UTF-8
Идентификатор кодека : S_TEXT/UTF8
Идентификатор кодека/Информация : UTF-8 Plain Text
Заголовок : Rus
Язык : Russian
Default : Нет
Forced : Нет
Текст #2
Идентификатор : 5
Формат : UTF-8
Идентификатор кодека : S_TEXT/UTF8
Идентификатор кодека/Информация : UTF-8 Plain Text
Заголовок : Eng
Язык : English
Default : Нет
Forced : Нет
Меню
00:00:00.000 : :Chapter 01
00:03:38.342 : :Chapter 02
00:06:59.376 : :Chapter 03
00:09:28.693 : :Chapter 04
00:12:18.028 : :Chapter 05
00:14:55.769 : :Chapter 06
00:17:48.609 : :Chapter 07
00:22:53.872 : :Chapter 08
00:26:33.550 : :Chapter 09
00:30:34.623 : :Chapter 10
00:33:57.368 : :Chapter 11
00:37:26.035 : :Chapter 12
00:39:43.255 : :Chapter 13
00:42:54.612 : :Chapter 14
00:46:03.051 : :Chapter 15
00:48:35.078 : :Chapter 16
00:52:56.464 : :Chapter 17
00:55:48.344 : :Chapter 18
01:00:47.310 : :Chapter 19
01:04:04.715 : :Chapter 20
01:09:00.719 : :Chapter 21
01:16:01.180 : :Chapter 22
01:19:52.621 : :Chapter 23
01:26:11.832 : :Chapter 24
01:28:49.741 : :Chapter 25
01:32:57.655 : :Chapter 26

x264

x264 [info]: frame I:1072 Avg QP:13.92 size:154753
x264 [info]: frame P:42459 Avg QP:16.46 size: 84721
x264 [info]: frame B:102063 Avg QP:18.65 size: 38632
[Профиль] [ЛС]
Показать сообщения:    

Текущее время: Сегодня 03:21

Часовой пояс: GMT



Вы не можете начинать темы
Вы не можете отвечать на сообщения
Вы не можете редактировать свои сообщения
Вы не можете удалять свои сообщения
Вы не можете голосовать в опросах
Вы не можете прикреплять файлы к сообщениям
Вы не можете скачивать файлы