Марш деревянных солдатиков в 3Д / Babes in Toyland 3D (Гас Майнс / Gus Meins) [1934, мюзикл, фэнтези, комедия, семейный., BDrip-AVC] Half OverUnder / Вертикальная анаморфная стереопара

 
Автор Сообщение

TorrentFilm ®

Пол:

Стаж: 2 года

Сообщений: 7741



Награды: Нет

Торрент-статистика

Создавать темы 02-Янв-2016 00:02

[Цитировать]

Марш деревянных солдатиков 3Д/ Babes in Toyland6 3D«1 и 1/2 часа смеха!»
Год выпуска: 1934
Страна: США
Жанр: мюзикл, фэнтези, комедия, семейный.
Продолжительность: 01:19:32
Перевод: Профессиональный (многоголосый закадровый)
Русские субтитры: нет
Режиссер: Гас Майнс,Чарли Роджерс / Gus Meins,Charley Rogers-Роли исполняли:-Оливер Харди,Шарлотта Генри,Феликс Найт,Генри Брэндон,Флоренс Робертс
Вирджиния Карнс,Мари Уилсон,Джонни Даунс,Эрни Александр.
Описание:Добро пожаловать в сказочную Страну Игрушек, где помимо трех поросят и ученого кота проживают Стэнни Дам и Олли Ди — помощники Мастера игрушек, Наши бестолковые герои всеми способами пытаются помешать несправедливой свадьбе городского плохиша Барнаби с малюткой Бо-Пип.

Техн. детали съёмки

Премьера: 14 декабря 1934
. .
Проверено на встроенном плейере ТВ LG LW 650S
-Доп. информация по релизу: За трудоемкую работу (подгонку звука) отдельное спасибо WhiteHorse-Качество: BDrip
Контейнер: MKV
Формат 3D: Anamorph OverUnder / Вертикальная анаморфная стереопара
Порядок ракурсов: левый ракурс первый
Видео кодек: x264
Аудио кодек: AC3-Видео: AVC / 23,976 fps / 1920х1080p / 14,6 Mbps
Аудио 1: - Русский/ AC3 / 48 KHz / 2.0 ch / 192 Kbps (MVO)
Аудио 2: - Английский / AC3 / 48 KHz / 2.0 ch / 448 Kbps

MediaInfo

Общее
Уникальный идентификатор : 210115194582240046322285842332540191246 (0x9E12B6E994D3EC61803EE0FDB15BC20E)
Полное имя : E:\3Д фильмы\Babes in Toyland 3D (1937)Half OU.1080p.AC3-rus (MVO)(m@rik05).mkv
Формат : Matroska
Версия формата : Version 4 / Version 2
Размер файла : 8,66 Гбайт
Продолжительность : 1 ч. 19 м.
Общий поток : 15,6 Мбит/сек
Название фильма : Babes in Toyland 3D(1934) 3D-RuGroup
Дата кодирования : UTC 2010-02-22 21:41:31
Программа кодирования : mkvmerge v5.9.0 ('On The Loose') built on Dec 9 2012 15:37:01
Библиотека кодирования : libebml v1.3.0 + libmatroska v1.4.0
Видео
Идентификатор : 1
Формат : AVC
Формат/Информация : Advanced Video Codec
Профиль формата : High@L4.1
Параметр CABAC формата : Да
Параметр ReFrames формата : 4 кадра
Идентификатор кодека : V_MPEG4/ISO/AVC
Продолжительность : 1 ч. 19 м.
Битрейт : 14,6 Мбит/сек
Ширина : 1920 пикселей
Высота : 1080 пикселей
Соотношение сторон : 16:9
Режим частоты кадров : Постоянный
Частота кадров : 23,976 кадра/сек
Цветовое пространство : YUV
Субдискретизация насыщенности : 4:2:0
Битовая глубина : 8 бит
Тип развёртки : Прогрессивная
Бит/(Пиксели*Кадры) : 0.294
Размер потока : 8,13 Гбайт (94%)
Заголовок : rip by m@rik05
Библиотека кодирования : x264 core 116 r2074 2641b9e
Настройки программы : cabac=1 / ref=4 / deblock=1:-3:-3 / analyse=0x3:0x133 / me=umh / subme=9 / psy=1 / psy_rd=1.00:0.05 / mixed_ref=1 / me_range=16 / chroma_me=1 / trellis=2 / 8x8dct=1 / cqm=0 / deadzone=21,11 / fast_pskip=1 / chroma_qp_offset=-3 / threads=12 / sliced_threads=0 / nr=0 / decimate=1 / interlaced=0 / bluray_compat=0 / constrained_intra=0 / bframes=6 / b_pyramid=2 / b_adapt=2 / b_bias=0 / direct=3 / weightb=1 / open_gop=0 / weightp=2 / keyint=250 / keyint_min=23 / scenecut=40 / intra_refresh=0 / rc_lookahead=60 / rc=crf / mbtree=1 / crf=16.0 / qcomp=0.60 / qpmin=10 / qpmax=69 / qpstep=4 / vbv_maxrate=40000 / vbv_bufsize=40000 / crf_max=0.0 / nal_hrd=none / frame-packing=4 / ip_ratio=1.40 / aq=1:0.70
Язык : English
Default : Да
Forced : Нет
Аудио #1
Идентификатор : 2
Формат : AC-3
Формат/Информация : Audio Coding 3
Расширение режима : CM (complete main)
Параметр Endianness формата : Big
Идентификатор кодека : A_AC3
Продолжительность : 1 ч. 19 м.
Вид битрейта : Постоянный
Битрейт : 192 Кбит/сек
Каналы : 2 канала
Расположение каналов : Front: L R
Частота : 48,0 КГц
Битовая глубина : 16 бит
Метод сжатия : С потерями
Размер потока : 109 Мбайт (1%)
Заголовок : AC3 2.0 @ 192 kbps (MVO) Профессиональный (многоголосый закадровый)
Язык : Russian
Default : Да
Forced : Нет
Аудио #2
Идентификатор : 3
Формат : AC-3
Формат/Информация : Audio Coding 3
Расширение режима : CM (complete main)
Параметр Endianness формата : Big
Идентификатор кодека : A_AC3
Продолжительность : 1 ч. 19 м.
Вид битрейта : Постоянный
Битрейт : 448 Кбит/сек
Каналы : 2 канала
Расположение каналов : Front: L R
Частота : 48,0 КГц
Битовая глубина : 16 бит
Метод сжатия : С потерями
Размер потока : 255 Мбайт (3%)
Заголовок : AC3 2.0 @ 448 kbps (оригинал)
Язык : English
Default : Нет
Forced : Нет
Меню
00:00:00.000 : en:00:00:00.000
00:06:52.454 : en:00:06:52.454
00:10:03.603 : en:00:10:03.603
00:17:44.605 : en:00:17:44.605
00:26:13.822 : en:00:26:13.822
00:29:38.568 : en:00:29:38.568
00:33:23.210 : en:00:33:23.210
00:42:27.420 : en:00:42:27.420
00:49:24.670 : en:00:49:24.670
00:57:00.292 : en:00:57:00.292
01:08:55.173 : en:01:08:55.173
01:13:21.439 : en:01:13:21.439

Скриншоты

[Профиль] [ЛС]
Кто просматривает тему:

Показать сообщения:    

Текущее время: Сегодня 12:50

Часовой пояс: GMT



Вы не можете начинать темы
Вы не можете отвечать на сообщения
Вы не можете редактировать свои сообщения
Вы не можете удалять свои сообщения
Вы не можете голосовать в опросах
Вы не можете прикреплять файлы к сообщениям
Вы не можете скачивать файлы