Мартышкины проделки / Apenstreken / Monkey Business (2015) BDRip 720p | P

 
Автор Сообщение

достали все ®

Пол:

Стаж: 1 год 8 месяцев

Сообщений: 6521



Награды: 12 (Подробнее)

Top Releaser 4 (Количество: 1) Mega Releaser 2 (Количество: 1) Mega Seeder 4 (Количество: 1)
Торрент-статистика

Создавать темы 29-Авг-2016 08:51

[Цитировать]

Информация о фильме
Название: Мартышкины проделки
Оригинальное название: Apenstreken / Monkey Business
Год выхода: 2015
Жанр: семейный, приключения
Режиссер: Йохан Нийенхейс
В ролях: Тиго Буссемакерс, Дик Карлир, Хюс Дам, Арьян Эдервен, Ларс Хенкенс, Эйвон Ясперс, Люк Питерс, Элвин Пулинкс, Харри ван Рейтховен, Мартина Сандифорт
О фильме: Сирота Вим мечтает учиться в школе, но его заставляют трудиться на фабрике. Когда мальчик сбегает, хозяева мануфактуры объявляют его в розыск. Теперь Виму предстоит наказать обидчиков, а помогут ему в этом верные друзья и маленькая обезьянка!

Страна: Нидерланды / Johan Nijenhuis & Co, Farmhouse Film & TV, Mollywood
Продолжительность: 01:30:50
Перевод: Профессиональный (многоголосый закадровый) [Игмар]
Файл
Качество: BDRip 720p
Формат: MKV
Видео: AVC, 3500 Kb/s, 1280x672
Звук: Russian: AC3, 192 Kb/s (2 ch), Dutch: DTS, 1509 Kb/s (6 ch)
Субтитры: нет
Дополнительно: Сохранены оригинальные главы (чаптеры)

MediaInfo:

Format : Matroska
Format version : Version 4 / Version 2
File size : 3.30 GiB
Duration : 1 h 30 min
Overall bit rate : 5 201 kb/s
Movie name : Rip by basma4i
Encoded date : UTC 2016-08-29 04:23:26
Writing application : mkvmerge v9.3.1 ('Mask Machine') 64bit
Writing library : libebml v1.3.4 + libmatroska v1.4.5
Video
ID : 1
Format : AVC
Format/Info : Advanced Video Codec
Format profile : High@L4.1
Format settings, CABAC : Yes
Format settings, ReFrames : 12 frames
Codec ID : V_MPEG4/ISO/AVC
Duration : 1 h 30 min
Bit rate : 3 500 kb/s
Width : 1 280 pixels
Height : 672 pixels
Display aspect ratio : 1.905
Frame rate mode : Constant
Frame rate : 24.000 FPS
Color space : YUV
Chroma subsampling : 4:2:0
Bit depth : 8 bits
Scan type : Progressive
Bits/(Pixel*Frame) : 0.170
Stream size : 2.22 GiB (67%)
Writing library : x264 core 130 r2273 b3065e6
Encoding settings : cabac=1 / ref=12 / deblock=1:-3:-3 / analyse=0x3:0x133 / me=umh / subme=11 / psy=1 / psy_rd=1.00:0.05 / mixed_ref=1 / me_range=32 / chroma_me=1 / trellis=2 / 8x8dct=1 / cqm=0 / deadzone=21,11 / fast_pskip=0 / chroma_qp_offset=-3 / threads=6 / lookahead_threads=1 / sliced_threads=0 / nr=0 / decimate=0 / interlaced=0 / bluray_compat=0 / constrained_intra=0 / bframes=10 / b_pyramid=2 / b_adapt=1 / b_bias=0 / direct=3 / weightb=1 / open_gop=1 / weightp=2 / keyint=240 / keyint_min=23 / scenecut=40 / intra_refresh=0 / rc_lookahead=40 / rc=2pass / mbtree=1 / bitrate=3500 / ratetol=1.0 / qcomp=0.60 / qpmin=0 / qpmax=69 / qpstep=4 / cplxblur=20.0 / qblur=0.5 / vbv_maxrate=32500 / vbv_bufsize=62500 / nal_hrd=none / ip_ratio=1.40 / aq=1:1.00
Language : English
Default : Yes
Forced : No
Audio #1
ID : 2
Format : AC-3
Format/Info : Audio Coding 3
Mode extension : CM (complete main)
Format settings, Endianness : Big
Codec ID : A_AC3
Duration : 1 h 30 min
Bit rate mode : Constant
Bit rate : 192 kb/s
Channel(s) : 2 channels
Channel positions : Front: L R
Sampling rate : 48.0 kHz
Frame rate : 31.250 FPS (1536 spf)
Compression mode : Lossy
Stream size : 125 MiB (4%)
Language : Russian
Default : Yes
Forced : No
Audio #2
ID : 3
Format : DTS
Format/Info : Digital Theater Systems
Mode : 16
Format settings, Endianness : Big
Codec ID : A_DTS
Duration : 1 h 30 min
Bit rate mode : Constant
Bit rate : 1 509 kb/s
Channel(s) : 6 channels
Channel positions : Front: L C R, Side: L R, LFE
Sampling rate : 48.0 kHz
Frame rate : 93.750 FPS (512 spf)
Bit depth : 24 bits
Compression mode : Lossy
Stream size : 980 MiB (29%)
Language : Dutch
Default : No
Forced : No
Menu
00:00:00.000 : en:00:00:00.000
00:08:14.583 : en:00:08:14.583
00:20:22.167 : en:00:20:22.167
00:30:55.042 : en:00:30:55.042
00:40:17.708 : en:00:40:17.708
00:51:06.750 : en:00:51:06.750
01:00:11.458 : en:01:00:11.458
01:09:15.083 : en:01:09:15.083
01:20:02.625 : en:01:20:02.625

Скриншоты

[Профиль] [ЛС]
Показать сообщения:    

Текущее время: Сегодня 09:59

Часовой пояс: GMT



Вы не можете начинать темы
Вы не можете отвечать на сообщения
Вы не можете редактировать свои сообщения
Вы не можете удалять свои сообщения
Вы не можете голосовать в опросах
Вы не можете прикреплять файлы к сообщениям
Вы не можете скачивать файлы